<?xml version="1.0" standalone="no"?>
<!DOCTYPE svg PUBLIC "-//W3C//DTD SVG 1.1//EN" "http://www.w3.org/Graphics/SVG/1.1/DTD/svg11.dtd" >
<svg xmlns="http://www.w3.org/2000/svg">
<metadata>Generated by IcoMoon</metadata>
<defs>
<font id="icomoon" horiz-adv-x="1024">
<font-face units-per-em="1024" ascent="960" descent="-64" />
<missing-glyph horiz-adv-x="1024" />
<glyph unicode="&#x20;" horiz-adv-x="512" d="" />
<glyph unicode="&#xe900;" glyph-name="cell-phone" d="M727.42 960h-430.84c-41.233 0-74.518-33.434-74.518-74.593v-874.889c0-41.121 33.285-74.518 74.518-74.518h430.84c41.159 0 74.518 33.397 74.518 74.518v874.889c0 41.159-33.36 74.593-74.518 74.593zM405.689 914.7h212.696c5.373 0 9.739-8.023 9.739-17.949s-4.366-17.986-9.739-17.986h-212.696c-5.411 0-9.702 8.060-9.702 17.986s4.291 17.949 9.702 17.949zM512.037 9.623c-26.232 0-47.577 21.344-47.577 47.614s21.344 47.539 47.577 47.539c26.158 0 47.502-21.27 47.502-47.539s-21.344-47.614-47.502-47.614zM746.115 172.652h-468.192v661.484h468.192v-661.484z" />
<glyph unicode="&#xe901;" glyph-name="straight-quotes" d="M0 832v-768l384 384v384zM640 832v-768l384 384v384z" />
<glyph unicode="&#xe902;" glyph-name="xbox-logo" d="M228.144 873.128c-0.517-0.398-0.915-0.836-1.393-1.234 2.905 3.064 7.083 6.367 9.829 8.158 80.147 52.091 172.749 79.948 275.499 79.948 96.104 0 186.12-26.543 262.964-72.705 5.571-3.303 20.773-13.729 28.612-23.2v-0.040c-74.138 81.739-292.054-93.637-292.054-93.637-75.371 58.1-144.694 97.696-196.308 111.784-43.138 11.819-72.984 1.95-87.151-9.073zM887.623 795.846c-2.268 2.507-4.736 4.855-7.004 7.442-18.743 20.574-41.785 25.548-62.557 24.195-18.903-5.929-106.252-37.407-213.897-139.043 0 0 121.175-117.832 195.393-238.291 74.138-120.459 118.469-215.131 91.21-346.533 82.733 90.931 133.193 211.748 133.193 344.424 0 134.268-51.693 256.478-136.337 347.807zM702.657 398.694c-32.871 36.89-81.778 89.737-146.365 153.966-14.127 14.048-29.050 28.692-44.729 43.854 0 0-23.598-23.598-54.32-54.638v0.040c-39.317-39.715-90.294-91.528-118.589-121.772-50.38-53.763-194.716-222.612-202.834-317.284 0 0-32.114 75.093 38.362 248.28 46.043 113.216 185.165 283.22 243.266 338.614 0 0-53.086 58.419-119.703 98.771l-0.398 0.119c0 0-0.756 0.597-1.95 1.353-32.035 19.102-67.014 33.826-100.681 35.776-34.383-2.427-56.15-27.578-56.15-27.578-85.917-91.608-138.486-214.733-138.486-350.194 0-282.742 229.218-512 512-512 150.066 0 285.090 64.706 378.767 167.576-0.040 0.159-10.784 67.651-79.669 164.472-16.196 22.683-75.371 93.478-108.52 130.646z" />
<glyph unicode="&#xe903;" glyph-name="blocks-with-angled-cuts" d="M1024 64v768l-384-384v-384zM384 64v768l-384-384v-384z" />
<glyph unicode="&#xe904;" glyph-name="steam-logo" d="M336.819 171.374l-100.741 38.903c13.463-54.088 62.307-94.165 120.623-94.165 68.648 0 124.38 55.654 124.38 124.38 0 68.569-55.732 124.301-124.38 124.301-24.735 0-47.748-7.28-67.082-19.725l99.488-38.355c37.337-14.481 55.967-56.437 41.564-93.774-14.481-37.416-56.437-56.124-93.852-41.564zM720.604 461.855c85.007 0 154.124 69.117 154.124 154.124s-69.117 154.124-154.124 154.124c-84.929 0-154.124-69.117-154.124-154.124 0-84.929 69.196-154.124 154.124-154.124zM720.604 724.547c59.959 0 108.646-48.687 108.646-108.568s-48.687-108.568-108.646-108.568c-59.881 0-108.568 48.687-108.568 108.568s48.687 108.568 108.568 108.568zM889.758 959.922h-755.515c-74.205 0-134.242-60.116-134.242-134.242v-368.599l195.297-75.458c37.807 43.756 93.226 71.779 155.377 72.796l117.335 156.551c0 138.782 112.56 251.264 251.264 251.264 138.782 0 251.264-112.482 251.264-251.264 0-76.162-33.972-144.418-87.512-190.523v0 0c-44.069-37.807-101.21-60.742-163.752-60.742-6.575 0-13.072 0.313-19.491 0.861l-136.356-102.776c0.313-4.305 0.47-8.689 0.47-13.072 0-115.848-93.931-209.935-209.778-209.935s-209.778 94.009-209.778 209.935c0 0.313 0 0.783 0 1.174l-144.34 55.732v-231.304c0-74.127 60.116-134.242 134.242-134.242h755.515c74.127 0 134.242 60.116 134.242 134.242v755.28c0 74.127-60.116 134.321-134.242 134.321z" />
<glyph unicode="&#xe905;" glyph-name="business" d="M938.688 864h-138.688v64c0 17.696-14.304 32-32 32s-32-14.304-32-32v-64h-192v64c0 17.696-14.336 32-32 32s-32-14.304-32-32v-64h-192v64c0 17.696-14.336 32-32 32s-32-14.304-32-32v-64h-138.656c-47.136 0-85.344-38.176-85.344-85.312v-757.344c0-47.136 38.208-85.344 85.344-85.344h853.344c47.136 0 85.312 38.208 85.312 85.344v757.344c0 47.136-38.176 85.312-85.312 85.312zM960 21.344c0-11.776-9.568-21.344-21.312-21.344h-853.344c-11.776 0-21.344 9.568-21.344 21.344v757.344c0 11.744 9.568 21.312 21.344 21.312h138.656v-64c0-17.696 14.336-32 32-32s32 14.304 32 32v64h192v-64c0-17.696 14.336-32 32-32s32 14.304 32 32v64h192v-64c0-17.696 14.304-32 32-32s32 14.304 32 32v64h138.688c11.744 0 21.312-9.568 21.312-21.312v-757.344zM224 576h128v-96h-128v96zM224 416h128v-96h-128v96zM224 256h128v-96h-128v96zM448 256h128v-96h-128v96zM448 416h128v-96h-128v96zM448 576h128v-96h-128v96zM672 256h128v-96h-128v96zM672 416h128v-96h-128v96zM672 576h128v-96h-128v96z" />
<glyph unicode="&#xe906;" glyph-name="technology" d="M512 960c-194.432 0-352-157.568-352-352 0-128.992 118.016-265.696 160.992-385.76 64.096-179.040 56.992-286.24 191.008-286.24 136 0 126.88 106.688 191.008 285.504 43.104 120.32 160.992 258.496 160.992 386.496 0 194.432-157.632 352-352 352zM594.944 90.368l-158.656-19.808c-5.664 16.384-11.744 35.552-19.136 60.576-0.096 0.32-0.224 0.672-0.288 0.992l198.016 24.736c-2.816-9.44-5.824-19.36-8.448-28.256-4.192-14.368-7.936-26.848-11.488-38.24zM407.552 162.944c-5.824 19.264-12.384 39.552-19.68 61.056h248.512c-3.936-11.488-7.872-23.008-11.264-33.888l-217.568-27.168zM512 0c-32.416 0-47.328 3.744-63.904 40l135.616 16.992c-19.648-52.928-33.952-56.992-71.712-56.992zM661.504 288h-298.656c-15.936 34.56-35.072 69.12-53.952 102.944-41.76 74.72-84.896 152-84.896 217.056 0 158.816 129.184 288 288 288s288-129.184 288-288c0-64.576-43.2-142.272-84.992-217.44-18.688-33.696-37.696-68.192-53.504-102.56zM512 800c-105.888 0-192-86.112-192-192 0-8.832 7.168-16 16-16s16 7.168 16 16c0 88.224 71.776 160 160 160 8.832 0 16 7.168 16 16s-7.2 16-16 16z" />
<glyph unicode="&#xe907;" glyph-name="graph-line-screen" d="M961.69 908.191h-899.335c-34.32 0-62.355-28.080-62.355-62.31v-646.619c0-34.187 28.035-62.31 62.355-62.31h899.335c34.275 0 62.31 28.123 62.31 62.31v646.619c0 34.23-28.035 62.31-62.31 62.31zM946.002 245.094h-868.004v575.695h868.004v-575.695zM396.628 107.377l-117.68-119.568h467.816l-117.68 119.568zM210.531 360.531c22.983 0 41.702 18.677 41.702 41.658 0 4.174-1.23 7.953-2.373 11.777 53.302 42.976 147.473 118.733 190.404 151.822 6.767-4.789 14.633-8.218 23.553-8.218 7.425 0 14.018 2.461 20.037 5.845 27.595-23.466 74.527-63.365 107.836-91.708-0.44-2.416-1.406-4.569-1.406-7.118 0-23.026 18.719-41.702 41.745-41.702s41.745 18.677 41.745 41.702c0 4.087-1.23 7.823-2.328 11.557l107.836 97.378c5.8-3.031 12.040-5.185 19.072-5.185 23.026 0 41.702 18.677 41.702 41.702s-18.677 41.702-41.702 41.702-41.658-18.677-41.658-41.745c0-5.492 1.186-10.721 3.119-15.511-30.146-27.2-76.635-69.21-105.638-95.4-6.46 4.174-13.755 7.25-22.103 7.25-9.843 0-18.457-3.911-25.574-9.579-27.552 23.421-72.111 61.3-103.793 88.237 1.67 4.482 2.856 9.183 2.856 14.28 0 23.026-18.677 41.702-41.702 41.702s-41.702-18.677-41.702-41.702c0-5.097 1.23-9.843 2.901-14.325l-191.414-148.921c-6.68 4.569-14.37 7.91-23.071 7.91-23.026 0-41.702-18.677-41.702-41.702-0.045-23.030 18.632-41.706 41.658-41.706z" />
<glyph unicode="&#xe908;" glyph-name="smartphone-call" d="M740.264 960h-456.528c-38.034 0-69.164-31.1-69.164-69.164v-885.643c0-38.064 31.13-69.193 69.164-69.193h456.528c38.034 0 69.164 31.071 69.164 69.164v885.672c0 38.064-31.13 69.164-69.164 69.164zM438.974 910.146h146.052c4.623 0 8.368-3.745 8.368-8.397 0-4.623-3.745-8.368-8.368-8.368h-146.052c-4.623 0-8.368 3.745-8.368 8.368 0 4.652 3.745 8.397 8.368 8.397zM512-29.418c-19.105 0-34.582 15.477-34.582 34.611s15.477 34.582 34.582 34.582 34.582-15.448 34.582-34.582-15.477-34.611-34.582-34.611zM761.3 64h-498.6v786.315h498.6v-786.315z" />
<glyph unicode="&#xe909;" glyph-name="e-mail-envelope" d="M0 787.388v-678.776h1024v678.776h-1024zM512.005 368.216l-420.003 368.824h839.996l-419.993-368.824zM344.695 448.119l-294.346-258.481v516.965l294.346-258.483zM382.846 414.611l129.147-113.414 129.147 113.414 291.122-255.65h-840.524l291.108 255.65zM679.293 448.107l294.356 258.496v-516.965l-294.356 258.469z" />
<glyph unicode="&#xe90a;" glyph-name="triangular-arrow-facing-left" d="M849.029-64l-674.057 512 674.057 512v-1024zM248.457 448l556.076-422.324v844.629l-556.076-422.305z" />
<glyph unicode="&#xe90b;" glyph-name="tool" d="M568.020-53.72h-107.639c-16.195 0-21.844-0.035-77.032 136.691l-42.62 17.324c-116.131-52.685-129.878-52.685-134.473-52.685h-8.887l-7.578 6.509-76.303 74.655c-11.604 11.584-15.625 15.605 44.083 150.543l-17.379 41.116c-140.193 50.238-140.193 56.067-140.193 72.622v105.531c0 16.534 0 21.754 139.728 75.784l17.379 41.206c-63.16 132.885-58.815 137.011-46.356 148.74l82.058 80.449 10.19 0.32c12.388 0 58.35-16.769 136.726-49.858l42.495 17.254c51.162 137.261 57.441 137.241 73.581 137.241h107.639c16.125 0 21.794-0.020 76.982-136.781l42.69-17.199c115.951 52.615 129.878 52.615 134.508 52.615h8.832l7.578-6.399 76.303-74.53c11.604-11.709 15.57-15.715-44.138-150.708l17.429-41.351c140.373-50.023 140.373-55.832 140.373-72.422v-105.406c0-16.145 0-21.829-139.908-75.888l-17.269-41.241c62.841-132.31 58.69-136.456 46.926-148.31l-82.682-80.949-10.245-0.285c-12.333 0-58.19 16.789-136.456 49.913l-42.745-17.269c-51.302-137.231-57.131-137.231-73.596-137.231zM471.571-10.151h84.9c9.741 19.861 30.801 72.512 47.66 117.864l3.397 9.026 77.302 31.216 8.312-3.522c46.072-19.646 100.525-41.421 121.745-48.11l59.659 58.35c-7.578 21.005-30.551 72.402-51.272 115.756l-4.181 8.812 31.985 76.353 8.707 3.362c46.536 17.913 100.455 40.027 120.601 50.113v81.973c-20.381 9.581-74.085 30.017-120.367 46.426l-9.061 3.237-32.195 76.428 3.841 8.617c19.806 44.693 41.836 97.413 48.894 118.653l-59.819 58.475c-19.307-6.739-73.371-29.907-118.973-50.717l-8.492-3.896-77.302 31.161-3.452 8.597c-18.273 45.607-40.976 98.487-51.217 118.064h-84.84c-9.796-19.806-30.786-72.477-47.605-117.814l-3.342-8.977-77.087-31.32-8.312 3.557c-46.176 19.612-100.74 41.351-122.030 48.035l-59.554-58.385c7.473-20.97 30.516-72.332 51.167-115.686l4.236-8.832-32.145-76.318-8.652-3.342c-46.461-17.893-100.29-39.992-120.441-50.038v-82.078c20.381-9.616 74.030-30.107 120.282-46.586l8.992-3.272 32.2-76.173-3.841-8.597c-19.806-44.658-41.816-97.308-48.894-118.508l59.944-58.655c19.252 6.794 73.246 29.962 118.903 50.792l8.547 3.916 77.142-31.355 3.452-8.597c18.328-45.622 40.961-98.412 51.207-118.004zM511.993 272.383c-98.702 0-179.076 78.786-179.076 175.629 0 96.769 80.359 175.505 179.076 175.505 98.647 0 178.826-78.751 178.826-175.505 0-96.844-80.179-175.629-178.826-175.629zM511.993 579.908c-74.71 0-135.437-59.174-135.437-131.901 0-72.776 60.713-132.006 135.437-132.006 74.585 0 135.263 59.229 135.263 132.006-0.020 72.726-60.678 131.901-135.263 131.901z" />
<glyph unicode="&#xe90c;" glyph-name="people" d="M951.6 223.904c-30.224 30.216-80.8 56.592-160.528 96.472-40.192 20.096-107.088 53.528-123.304 68.84 67.912 83.472 107.328 177.752 107.328 260.28 0 56 0 125.688-31.344 187.84-28.256 55.976-91.4 122.664-231.736 122.664-140.368 0-203.512-66.688-231.736-122.656-31.384-62.16-31.384-131.84-31.384-187.84 0-82.56 39.384-176.816 107.336-260.28-16.256-15.344-83.144-48.784-123.336-68.84-79.704-39.872-130.28-66.248-160.528-96.472-66.952-67-72.016-179.408-72.36-201.28-0.344-22.816 8.472-44.872 24.536-61.184 16-16.248 37.944-25.44 60.76-25.44h853.352c22.88 0 44.768 9.184 60.8 25.44 16.032 16.312 24.88 38.376 24.536 61.216-0.344 21.832-5.448 134.24-72.392 201.24zM953.88 6.376c-4.064-4.096-9.472-6.376-15.224-6.376h-853.352c-5.656 0-11.184 2.312-15.16 6.376-3.968 4.032-6.216 9.592-6.16 15.28 0.184 10.72 3.128 106.44 53.64 156.968 23.32 23.312 72.136 48.592 143.904 84.504 76.608 38.28 119.088 61.096 138.656 79.592l43.192 40.84-37.504 46.064c-59.072 72.56-92.984 152.72-92.984 219.872 0 51.784 0 110.44 24.504 159 29.344 58.064 88.040 87.504 174.624 87.504 86.512 0 145.272-29.44 174.592-87.472 24.504-48.592 24.504-107.248 24.504-159.032 0-67.128-33.88-147.28-93.024-219.872l-37.504-46.096 43.2-40.816c19.56-18.472 62.008-41.28 138.648-79.592 71.768-35.872 120.584-61.16 143.904-84.504 41.104-41.096 53.072-118 53.632-156.968 0.104-5.68-2.12-11.24-6.088-15.272z" />
<glyph unicode="&#xe90d;" glyph-name="cross" d="M36.441 411.559c-20.158 0-36.181 16.543-36.181 36.702s16.022 36.181 36.181 36.181h438.825v438.857c0.033 20.158 16.576 36.702 36.734 36.702s36.181-16.543 36.181-36.702v-438.857h438.825c20.158 0 36.702-16.022 36.702-36.181s-16.543-36.702-36.702-36.702h-438.825v-438.857c0-20.158-16.022-36.702-36.181-36.702s-36.702 16.543-36.702 36.702v438.857h-438.857z" />
<glyph unicode="&#xe90e;" glyph-name="line-1" d="M36.2 411.555c-20.169 0-36.2 16.52-36.2 36.689s16.031 36.2 36.2 36.2h951.078c20.169 0 36.722-16.031 36.722-36.2s-16.552-36.722-36.722-36.722h-951.078z" />
<glyph unicode="&#xe90f;" glyph-name="right-arrow" d="M689.55 797.181c-13.95 14.438-37.168 14.438-51.606 0-13.95-13.95-13.95-37.168 0-51.086l261.674-261.674h-863.49c-20.129-0.033-36.128-16.032-36.128-36.16s15.999-36.648 36.128-36.648h863.49l-261.674-261.187c-13.95-14.438-13.95-37.689 0-51.606 14.438-14.438 37.689-14.438 51.606 0l323.622 323.622c14.438 13.95 14.438 37.168 0 51.086l-323.622 323.654z" />
<glyph unicode="&#xe910;" glyph-name="arrows-4" d="M334.018 797.137c14.436 14.436 37.164 14.436 51.6 0 13.949-13.949 13.949-37.164 0-51.080l-261.641-261.641h863.38c20.126 0 36.643-15.997 36.643-36.123s-16.517-36.643-36.643-36.643h-863.38l261.641-261.153c13.949-14.436 13.949-37.684 0-51.6-14.436-14.436-37.164-14.436-51.6 0l-323.581 323.581c-13.949 13.949-13.949 37.164 0 51.080l323.581 323.581z" />
<glyph unicode="&#xe911;" glyph-name="home-1" d="M924.778 452.13c-13.691 0-24.795-11.104-24.795-24.795v-441.749h-266.070v277.302c0 13.691-11.104 24.795-24.795 24.795h-194.23c-13.691 0-24.795-11.104-24.795-24.795v-219.88c0-13.691 11.104-24.795 24.795-24.795s24.795 11.104 24.795 24.795v195.085h144.639v-252.507h-460.304v606.91l387.98 310.929 397.27-318.372c10.687-8.567 26.291-6.839 34.854 3.843 8.563 10.687 6.843 26.287-3.843 34.854l-412.775 330.802c-9.059 7.265-21.952 7.265-31.011 0l-412.775-330.802c-5.872-4.707-9.29-11.819-9.29-19.349v-643.607c0-13.691 11.1-24.795 24.795-24.795h825.555c13.695 0 24.795 11.104 24.795 24.795v466.54c0 13.695-11.1 24.795-24.795 24.795z" />
<glyph unicode="&#xe912;" glyph-name="24-hours" d="M1024 507.703c0 120.812-47.047 234.398-132.477 319.82-85.422 85.43-199.008 132.477-319.82 132.477s-234.398-47.047-319.828-132.477c-20.008-20.008-38.031-41.875-53.93-65.219-12.578 7.687-26.977 12.32-42.578 13.453-30.055 2.172-57.625-9.039-77.633-31.562-108.344-122.008-102.797-308.008 12.641-423.437l294.383-294.383c60.062-60.062 139.219-90.375 218.539-90.375 73.117 0 146.375 25.766 204.898 77.742 22.523 20 33.734 47.57 31.555 77.625-1.125 15.594-5.75 29.984-13.43 42.555 23.344 15.906 45.203 33.961 65.203 53.961 85.43 85.422 132.477 199.008 132.477 319.82zM768.359 58.594c-98.305-87.289-248.164-82.812-341.18 10.203l-294.383 294.383c-93.016 93.016-97.492 242.875-10.203 341.18 6.961 7.836 15.289 11.672 25.391 11.672 1 0 2.016-0.039 3.047-0.117 11.484-0.828 20.148-5.914 26.469-15.539l91.594-139.383c8.383-12.75 7.727-28.625-1.672-40.437-39.602-49.773-35.555-121.219 9.422-166.195l141.516-141.516c44.977-44.977 116.422-49.023 166.195-9.422 11.812 9.398 27.687 10.055 40.445 1.672l139.375-91.586c9.625-6.328 14.711-14.992 15.539-26.477 0.836-11.484-2.945-20.789-11.555-28.437zM779.812 175.148l-121.867 80.078c-34.281 22.531-78.781 20.578-110.742-4.859-25.883-20.594-63.031-18.492-86.422 4.898l-141.516 141.516c-23.383 23.391-25.492 60.539-4.898 86.422 25.437 31.961 27.391 76.461 4.867 110.742l-80.062 121.828c15.703 25.094 34.172 48.375 55.133 69.328 152.953 152.961 401.836 152.961 554.797 0 152.961-152.953 152.961-401.844 0-554.797-20.937-20.945-44.211-39.453-69.289-55.156zM822.023 590.039h-24v30c0 16.57-13.43 30-30 30-16.562 0-29.992-13.43-29.992-30v-30h-35.992v91.992c0 16.57-13.43 30-30 30-16.562 0-29.992-13.43-29.992-30v-121.984c0-16.57 13.43-30 29.992-30h65.992v-79.984c0-16.57 13.43-30 29.992-30 16.57 0 30 13.43 30 30v79.984h24c16.57 0 30 13.43 30 30 0 16.562-13.43 29.992-30 29.992zM588.055 480.055h-71.953c45.367 44.086 81.953 90.703 81.953 134.641 0 48.367-31.945 97.336-92.992 97.336-25.648 0-49.25-9.281-66.461-26.125-17.109-16.75-26.523-39.43-26.523-63.867 0-16.562 13.43-29.992 29.992-29.992 16.57 0 30 13.43 30 29.992 0 17.664 13.562 30 32.992 30 30.617 0 33-28.586 33-37.344 0-6.867-3.898-27.148-39.977-67.148-25.305-28.055-79.578-74.758-79.578-74.758-9.508-8.18-12.922-21.414-8.562-33.172 4.367-11.758 15.586-19.562 28.125-19.562h149.984c16.562 0 29.992 13.437 29.992 30s-13.43 30-29.992 30z" />
<glyph unicode="&#xe913;" glyph-name="24-hours-1" d="M1000.781 600.867c-4.938 15.82-21.773 24.625-37.578 19.688-2.016-0.625-3.906-1.445-5.672-2.43-12.156-6.773-18.328-21.344-14.016-35.148 13.594-43.516 20.484-88.93 20.484-134.977 0-249.234-202.766-452-452-452s-452 202.766-452 452 202.766 452 452 452c116.102 0 226.984-44.609 310.57-123.641l-64.32 16.031c-16.078 4-32.359-5.781-36.367-21.859s5.773-32.352 21.852-36.359l172.836-43.078c0.086-0.023 0.18-0.039 0.266-0.063 2.32-0.555 4.664-0.828 6.992-0.828 7.945 0 15.688 3.156 21.391 8.961 7.453 7.578 10.336 18.523 7.594 28.781l-45.914 171.773c-4.281 16.008-20.727 25.508-36.727 21.234-16.008-4.281-25.516-20.719-21.234-36.727l17.977-67.258c-95.023 91.383-221.945 143.031-354.914 143.031-136.758 0-265.336-53.258-362.039-149.961s-149.961-225.273-149.961-362.039c0-136.758 53.258-265.336 149.961-362.039s225.281-149.961 362.039-149.961 265.336 53.258 362.039 149.961c96.703 96.703 149.961 225.273 149.961 362.039 0 52.125-7.813 103.555-23.219 152.867zM580.336 423.578l-2.516 0.008v152.789c0 12.961-8.32 24.461-20.633 28.508-12.32 4.039-25.836-0.281-33.523-10.727l-134.297-182.469c-6.703-9.102-7.719-21.203-2.625-31.289 5.086-10.094 15.422-16.469 26.727-16.492l104.352-0.203v-45.891c0-16.57 13.438-30 30-30 16.57 0 30 13.43 30 30v45.773h2.461c16.539 0 29.961 13.391 30 29.938 0.031 16.57-13.375 30.023-29.945 30.055zM472.773 423.789l45.047 61.219v-61.305zM360.383 348.117h-88.836c14.094 16.367 30.641 32.414 46.078 47.391 39.039 37.867 72.758 70.563 72.758 108.57 0 57.086-46.461 103.523-103.57 103.523-41.711 0-79.141-24.82-95.352-63.242-6.438-15.266 0.719-32.859 15.984-39.297 15.258-6.453 32.859 0.711 39.297 15.977 6.805 16.141 22.539 26.563 40.070 26.563 24.023 0 43.563-19.523 43.563-43.523 0-0.648-0.352-6.797-12.586-21.969-10.563-13.102-25.805-27.883-41.938-43.531-32.547-31.57-69.43-67.344-87.656-108.258-4.141-9.281-3.297-20.023 2.242-28.539 5.531-8.523 15-13.664 25.156-13.664h144.781c16.57 0 30 13.43 30 30 0 16.563-13.422 30-29.992 30zM750.289 503.93c-10.039 0-19.688-1.875-28.688-5.289v79.969c0 16.57-13.43 30-30 30s-30-13.43-30-30v-261.219c0-16.57 13.43-30 30-30s30 13.43 30 30v84.008c0.375 1.898 0.586 3.859 0.586 5.867 0 19.875 12.867 36.664 28.102 36.664 15.242 0 28.109-16.789 28.109-36.664v-89.875c0-16.57 13.43-30 30-30s30 13.43 30 30v89.875c0 53.297-39.523 96.664-88.109 96.664z" />
<glyph unicode="&#xe914;" glyph-name="exam" d="M750.902 328.534c0 9.42-7.646 17.066-17.066 17.066h-102.4c-9.42 0-17.066-7.646-17.066-17.066s7.646-17.066 17.066-17.066h102.4c9.42-0.002 17.066 7.644 17.066 17.066zM682.634 772.266v85.334c0 9.42-7.646 17.066-17.066 17.066s-17.066-7.646-17.066-17.066v-85.334c0-47.052 38.28-85.334 85.334-85.334h153.6v-324.266c0-9.42 7.646-17.066 17.066-17.066s17.066 7.646 17.066 17.066v341.334c0 9.42-7.646 17.066-17.066 17.066h-170.666c-28.23 0-51.202 22.972-51.202 51.2zM733.834 550.4h-136.534c-9.42 0-17.066-7.646-17.066-17.066s7.646-17.066 17.066-17.066h136.534c9.42 0 17.066 7.646 17.066 17.066 0.002 9.42-7.644 17.066-17.066 17.066zM546.102 533.334c0 9.42-7.646 17.066-17.066 17.066h-102.4c-9.42 0-17.066-7.646-17.066-17.066s7.646-17.066 17.066-17.066h102.4c9.42-0.002 17.066 7.644 17.066 17.066zM426.634 448c-9.42 0-17.066-7.646-17.066-17.066s7.646-17.066 17.066-17.066h34.134c9.42 0 17.066 7.646 17.066 17.066s-7.646 17.066-17.066 17.066h-34.134zM426.634 618.666h170.666c9.42 0 17.066 7.646 17.066 17.066s-7.646 17.066-17.066 17.066h-170.666c-9.42 0-17.066-7.646-17.066-17.066s7.646-17.066 17.066-17.066zM529.034 413.866h170.666c9.42 0 17.066 7.646 17.066 17.066s-7.646 17.066-17.066 17.066h-170.666c-9.42 0-17.066-7.646-17.066-17.066s7.646-17.066 17.066-17.066zM631.434 243.2c-9.42 0-17.066-7.646-17.066-17.066s7.646-17.066 17.066-17.066h34.134c9.42 0 17.066 7.646 17.066 17.066s-7.646 17.066-17.066 17.066h-34.134zM563.168 345.6h-136.534c-9.42 0-17.066-7.646-17.066-17.066s7.646-17.066 17.066-17.066h136.534c9.42 0 17.066 7.646 17.066 17.066s-7.646 17.066-17.066 17.066zM563.168 243.2h-136.534c-9.42 0-17.066-7.646-17.066-17.066s7.646-17.066 17.066-17.066h136.534c9.42 0 17.066 7.646 17.066 17.066s-7.646 17.066-17.066 17.066zM969.508 257.006l-34.134 34.134c-26.232 26.232-66.202 26.18-92.398 0l-223.608-223.608c-3.192-3.192-5-7.544-5-12.066v-102.4c0-9.42 7.646-17.066 17.066-17.066h102.4c4.522 0 8.874 1.808 12.066 5l223.608 223.608c27.188 27.188 27.188 65.194 0 92.398zM820.908 220.808l27.068-27.068-148.276-148.276-27.068 27.068 148.276 148.276zM648.502-29.866v78.268l78.268-78.268h-78.268zM750.902-5.734l-27.068 27.068 148.276 148.276 27.068-27.068-148.276-148.276zM945.376 188.74l-22.068-22.068-78.268 78.268 22.068 22.068c13.482 13.466 30.584 13.534 44.134 0l34.134-34.134c13.806-13.824 13.806-30.326 0-44.134zM563.168-29.866h-443.734c-28.228 0-51.2 22.972-51.2 51.2v853.332c0 28.228 22.972 51.2 51.2 51.2h539.068l165.666-165.666c6.672-6.674 17.46-6.674 24.132 0 6.674 6.672 6.674 17.46 0 24.132l-170.666 170.668c-3.192 3.208-7.544 5-12.066 5h-546.134c-47.052 0-85.332-38.28-85.332-85.334v-853.334c0-47.052 38.28-85.334 85.334-85.334h443.734c9.42 0 17.066 7.646 17.066 17.066s-7.648 17.070-17.068 17.070zM563.168 140.8h-136.534c-9.42 0-17.066-7.646-17.066-17.066s7.646-17.066 17.066-17.066h136.534c9.42 0 17.066 7.646 17.066 17.066s-7.646 17.066-17.066 17.066zM341.302 635.734c0 9.42-7.646 17.066-17.066 17.066h-102.4c-9.42 0-17.066-7.646-17.066-17.066v-102.4c0-9.42 7.646-17.066 17.066-17.066h102.4c9.42 0 17.066 7.646 17.066 17.066v102.4zM307.168 550.4h-68.266v68.266h68.266v-68.266zM221.834 106.666h102.4c9.42 0 17.066 7.646 17.066 17.066v102.4c0 9.42-7.646 17.066-17.066 17.066h-102.4c-9.42 0-17.066-7.646-17.066-17.066v-102.4c0-9.42 7.646-17.066 17.066-17.066zM238.902 209.066h68.266v-68.266h-68.266v68.266zM243.902 316.468c3.208-3.208 7.56-5 12.066-5 0.564 0 1.11 0.016 1.69 0.086 5.086 0.494 9.676 3.26 12.51 7.51l68.266 102.4c5.222 7.85 3.106 18.45-4.728 23.672-7.868 5.24-18.432 3.106-23.672-4.728l-56.712-85.078-19.422 19.404c-6.672 6.674-17.46 6.674-24.132 0s-6.674-17.46 0-24.132l34.134-34.134z" />
<glyph unicode="&#xe915;" glyph-name="open-book" d="M582.109 474.382c3.020-5.906 9.028-9.318 15.24-9.318 2.594 0 5.256 0.598 7.732 1.86 1.006 0.512 101.461 51.542 151.005 67.191 8.978 2.85 13.96 12.442 11.11 21.418-2.834 8.978-12.356 13.978-21.418 11.144-52.19-16.504-151.961-67.191-156.193-69.341-8.398-4.266-11.742-14.542-7.476-22.954zM597.349 669.86c2.594 0 5.256 0.598 7.732 1.86 1.006 0.512 101.461 51.542 151.005 67.191 8.978 2.85 13.96 12.442 11.11 21.418-2.834 8.978-12.356 13.978-21.418 11.144-52.19-16.504-151.961-67.191-156.193-69.341-8.396-4.266-11.742-14.54-7.476-22.954 3.020-5.904 9.028-9.318 15.24-9.318zM1006.93 703.994c-9.438 0-17.066-7.646-17.066-17.066v-665.595c0-28.228-22.972-51.2-51.2-51.2h-409.597v39.27c24.884 8.704 89.701 28.996 153.599 28.996 148.667 0 249.616-32.922 250.622-33.262 5.136-1.706 10.872-0.854 15.36 2.356 4.454 3.208 7.082 8.362 7.082 13.842v750.924c0 8.004-5.546 14.934-13.364 16.658 0 0-13.38 2.986-36.25 7.186-9.234 1.706-18.158-4.438-19.866-13.688-1.706-9.284 4.42-18.176 13.688-19.882 8.722-1.604 16.026-3.020 21.658-4.148v-714.37c-38.674 10.138-124.551 28.518-238.932 28.518-74.359 0-147.403-24.422-170.001-32.7-20.088 8.874-80.809 32.7-154.265 32.7-117.555 0-214.39-19.388-255.998-29.236v715.754c34.082 8.38 134.741 30.276 255.998 30.276 62.226 0 115.591-19.37 136.533-28.126v-671.603c0-6.144 3.31-11.828 8.652-14.848 5.342-3.038 11.93-2.952 17.204 0.222 1.69 1.006 170.785 102.007 320.867 152.029 6.98 2.338 11.674 8.84 11.674 16.196v699.729c0 5.598-2.748 10.838-7.356 14.028-4.574 3.192-10.444 3.926-15.718 1.962-136.549-51.216-274.718-137.197-276.102-138.051-7.988-5-10.428-15.53-5.428-23.518 4.984-7.988 15.514-10.428 23.518-5.428 1.262 0.802 121.463 75.587 246.952 126.053v-662.557c-116.497-40.482-238.13-106.581-290.132-136.173v653.017c0 6.468-3.652 12.374-9.438 15.274-2.936 1.45-72.873 35.926-161.227 35.926-154.213 0-272.774-33.366-277.758-34.798-7.322-2.082-12.374-8.79-12.374-16.402v-750.928c0-5.342 2.526-10.394 6.776-13.62 3.004-2.27 6.622-3.448 10.292-3.448 1.57 0 3.14 0.222 4.676 0.666 1.178 0.324 119.193 33.468 268.388 33.468 62.396 0 115.711-19.422 136.533-28.142v-40.124h-409.597c-28.228 0-51.2 22.972-51.2 51.2v665.595c0 9.42-7.646 17.066-17.066 17.066s-17.066-7.646-17.066-17.066v-665.595c0-47.052 38.28-85.333 85.333-85.333h853.327c47.052 0 85.333 38.28 85.333 85.333v665.595c-0.002 9.422-7.63 17.068-17.068 17.068zM582.109 576.781c3.020-5.906 9.028-9.318 15.24-9.318 2.594 0 5.256 0.598 7.732 1.86 1.006 0.512 101.461 51.542 151.005 67.191 8.978 2.85 13.96 12.442 11.11 21.418-2.834 8.978-12.356 13.978-21.418 11.144-52.19-16.504-151.961-67.191-156.193-69.341-8.398-4.266-11.742-14.542-7.476-22.954zM582.109 371.983c3.020-5.906 9.028-9.318 15.24-9.318 2.594 0 5.256 0.598 7.732 1.86 1.006 0.512 101.461 51.542 151.005 67.191 8.978 2.85 13.96 12.442 11.11 21.418-2.834 8.978-12.356 13.978-21.418 11.144-52.19-16.504-151.961-67.191-156.193-69.341-8.398-4.266-11.742-14.542-7.476-22.954zM413.493 643.27c-105.385 24.73-225.142-6.776-230.176-8.124-9.096-2.44-14.506-11.792-12.066-20.906 2.048-7.628 8.942-12.646 16.47-12.646 1.468 0 2.952 0.188 4.438 0.58 1.144 0.324 116.445 30.652 213.554 7.868 9.13-2.134 18.364 3.55 20.514 12.732 2.148 9.164-3.552 18.346-12.734 20.496zM413.493 540.871c-105.385 24.712-225.142-6.776-230.176-8.124-9.096-2.44-14.506-11.794-12.066-20.906 2.048-7.628 8.942-12.646 16.47-12.646 1.468 0 2.952 0.188 4.438 0.58 1.144 0.324 116.445 30.652 213.554 7.868 9.13-2.134 18.364 3.55 20.514 12.732 2.148 9.164-3.552 18.346-12.734 20.496zM582.109 269.583c3.020-5.906 9.028-9.318 15.24-9.318 2.594 0 5.256 0.598 7.732 1.86 1.006 0.512 101.461 51.542 151.005 67.191 8.978 2.85 13.96 12.442 11.11 21.418-2.834 8.976-12.356 13.978-21.418 11.144-52.19-16.504-151.961-67.191-156.193-69.341-8.398-4.266-11.742-14.542-7.476-22.954zM413.493 438.472c-105.385 24.712-225.142-6.758-230.176-8.124-9.096-2.44-14.506-11.794-12.066-20.906 2.048-7.628 8.942-12.664 16.47-12.664 1.468 0 2.952 0.204 4.438 0.598 1.144 0.324 116.445 30.652 213.554 7.868 9.13-2.134 18.364 3.55 20.514 12.732 2.148 9.164-3.552 18.346-12.734 20.496zM413.493 233.674c-105.385 24.73-225.142-6.776-230.176-8.124-9.096-2.44-14.506-11.794-12.066-20.906 2.048-7.628 8.942-12.664 16.47-12.664 1.468 0 2.952 0.204 4.438 0.598 1.144 0.324 116.445 30.652 213.554 7.868 9.13-2.116 18.364 3.55 20.514 12.732 2.148 9.164-3.552 18.346-12.734 20.496zM413.493 336.073c-105.385 24.73-225.142-6.758-230.176-8.124-9.096-2.44-14.506-11.794-12.066-20.906 2.048-7.628 8.942-12.664 16.47-12.664 1.468 0 2.952 0.204 4.438 0.598 1.144 0.324 116.445 30.652 213.554 7.868 9.13-2.134 18.364 3.55 20.514 12.732 2.148 9.164-3.552 18.346-12.734 20.496z" />
<glyph unicode="&#xe916;" glyph-name="home" d="M1013.11 543.872l-485.392 355.394c-9.36 6.852-22.076 6.852-31.432 0l-485.396-355.394c-11.856-8.682-14.432-25.33-5.75-37.186s25.332-14.428 37.186-5.75l469.674 343.888 469.674-343.886c4.736-3.47 10.24-5.14 15.696-5.14 8.192 0 16.276 3.77 21.488 10.89 8.684 11.854 6.108 28.502-5.748 37.184zM884.492 494.914c-14.692 0-26.606-11.912-26.606-26.606v-423.498h-212.844v231.172c0 73.36-59.684 133.040-133.040 133.040s-133.040-59.684-133.040-133.040v-231.174h-212.846v423.498c0 14.694-11.914 26.606-26.606 26.606s-26.606-11.912-26.606-26.606v-450.106c0-14.694 11.914-26.606 26.606-26.606h266.058c13.992 0 25.442 10.81 26.502 24.534 0.064 0.622 0.104 1.302 0.104 2.072v257.78c0 44.018 35.81 79.828 79.828 79.828s79.828-35.812 79.828-79.828v-257.78c0-0.766 0.040-1.434 0.104-2.048 1.048-13.734 12.502-24.558 26.502-24.558h266.058c14.694 0 26.606 11.912 26.606 26.606v450.106c-0.002 14.696-11.914 26.608-26.608 26.608z" />
<glyph unicode="&#xe917;" glyph-name="house" d="M1015.451 302.505l-162.374 122.445v49.174c0 6.741-3.164 13.090-8.546 17.149l-319.599 241.008c-7.659 5.775-18.208 5.775-25.867 0l-319.599-241.008c-5.382-4.059-8.546-10.408-8.546-17.149v-49.174l-162.374-122.445c-5.382-4.059-8.546-10.408-8.546-17.149v-217.004c0-11.862 9.616-21.479 21.479-21.479h981.036c11.862 0 21.479 9.616 21.479 21.479v217.004c0 6.741-3.164 13.090-8.546 17.149zM535.225 89.834h-46.453v108.272h46.453v-108.272zM578.182 89.834v129.751c0 11.862-9.616 21.479-21.479 21.479h-89.41c-11.862 0-21.479-9.616-21.479-21.479v-129.751h-231.935v373.587l298.12 224.813 298.12-224.813v-373.587h-231.938zM42.961 274.654l127.962 96.495v-281.314h-127.962v184.819zM981.039 89.834h-127.962v281.314l127.962-96.495v-184.819zM34.412 440.602l477.588 360.142 477.585-360.145c3.875-2.921 8.414-4.333 12.918-4.333 6.508 0 12.943 2.949 17.165 8.549 7.143 9.469 5.256 22.939-4.216 30.080l-490.518 369.899c-7.659 5.775-18.208 5.775-25.867 0l-490.518-369.896c-9.472-7.143-11.359-20.61-4.216-30.080 7.14-9.472 20.614-11.359 30.080-4.216z" />
<glyph unicode="&#xe918;" glyph-name="quote" d="M0 374.857h219.428l-146.287-292.57h219.428l146.287 292.57v438.857h-438.857zM585.143 813.713v-438.857h219.428l-146.287-292.57h219.428l146.287 292.57v438.857z" />
<glyph unicode="&#xe919;" glyph-name="right-quote-sign" d="M971.489 899.931h-319.266c-28.986 0-52.511-23.525-52.511-52.511v-319.266c0-28.987 23.525-52.511 52.511-52.511h152.807c-1.995-83.598-21.424-150.496-58.182-200.802-28.986-39.698-72.884-72.57-131.592-98.51-26.991-11.867-38.648-43.794-26.045-70.471l37.808-79.817c12.183-25.624 42.324-36.863 68.369-25.624 69.524 30.036 128.233 68.054 176.121 114.264 58.393 56.397 98.405 120.040 120.040 191.035s32.452 167.825 32.452 290.7v251.002c0 28.985-23.526 52.511-52.511 52.511zM111.361 0.629c68.684 29.931 127.076 67.948 175.281 114.054 58.917 56.397 99.141 119.83 120.775 190.299s32.451 167.615 32.451 291.435v251.002c0 28.986-23.524 52.511-52.511 52.511h-319.266c-28.986 0-52.511-23.525-52.511-52.511v-319.266c0-28.987 23.525-52.511 52.511-52.511h152.807c-1.995-83.598-21.424-150.496-58.182-200.802-28.986-39.698-72.885-72.57-131.592-98.51-26.991-11.867-38.648-43.794-26.045-70.471l37.703-79.606c12.184-25.624 42.535-36.968 68.58-25.624z" />
<glyph unicode="&#xe91a;" glyph-name="placeholder" d="M515.338 735.59c-72.166 0-130.906-58.739-130.906-130.906s58.739-130.906 130.906-130.906 130.906 58.739 130.906 130.906-58.739 130.906-130.906 130.906zM515.338 511.181c-51.558 0-93.504 41.946-93.504 93.504s41.946 93.504 93.504 93.504 93.504-41.946 93.504-93.504-41.946-93.504-93.504-93.504zM765.611 854.958c-67.734 67.734-157.797 105.042-253.583 105.042-95.804 0-185.849-37.308-253.583-105.042-125.351-125.333-140.929-361.15-33.736-504.024l287.319-414.933 286.889 414.354c107.623 143.454 92.045 379.271-33.306 504.604zM768.584 372.215l-256.556-370.5-256.968 371.080c-97.225 129.634-83.293 342.599 29.846 455.72 60.665 60.665 141.322 94.084 227.121 94.084s166.456-33.418 227.14-94.084c113.14-113.121 127.072-326.086 29.416-456.3z" />
<glyph unicode="&#xe91b;" glyph-name="placeholder-1" d="M512 960c-198.504 0-360-161.496-360-360 0-67.068 18.578-132.52 53.738-189.304l285.77-460.514c5.474-8.822 15.118-14.182 25.49-14.182 0.080 0 0.158 0 0.238 0 10.462 0.082 20.126 5.608 25.5 14.584l278.486 464.976c33.22 55.584 50.778 119.362 50.778 184.44 0 198.504-161.496 360-360 360zM769.732 446.364l-253.188-422.736-259.81 418.68c-29.266 47.264-45.134 101.792-45.134 157.692 0 165.42 134.98 300.4 300.4 300.4s300.2-134.98 300.2-300.4c0-54.242-14.822-107.376-42.468-153.636zM512 780c-99.252 0-180-80.748-180-180 0-98.618 79.434-180 180-180 101.806 0 180 82.466 180 180 0 99.252-80.748 180-180 180zM512 479.6c-66.514 0-120.4 54.066-120.4 120.4 0 66.168 54.232 120.4 120.4 120.4s120.2-54.232 120.2-120.4c0-65.366-52.632-120.4-120.2-120.4z" />
<glyph unicode="&#xe91c;" glyph-name="placeholder-2" d="M517.926 514.963c64.603 0 117.185 52.583 117.185 117.185s-52.583 117.185-117.185 117.185-117.185-52.583-117.185-117.185 52.566-117.185 117.185-117.185zM517.926 715.852c46.154 0 83.704-37.55 83.704-83.704s-37.55-83.704-83.704-83.704-83.704 37.55-83.704 83.704 37.55 83.704 83.704 83.704zM840.655 330.815h-119.881l51.009 73.659c96.343 128.419 82.398 339.503-29.815 451.7-60.618 60.635-141.242 94.033-227.005 94.033-85.746 0-166.37-33.398-227.005-94.033-112.213-112.197-126.159-323.298-30.2-451.197l51.361-74.178h-125.773l-183.345-385.021h1024l-183.345 385.038zM284.928 424.563c-87.035 116.064-74.563 306.691 26.718 407.956 54.307 54.307 126.527 84.223 203.334 84.223s149.010-29.916 203.334-84.223c101.282-101.265 113.754-291.909 26.333-408.458l-229.683-331.685-230.035 332.187zM204.505 297.333h127.799l182.659-263.784 182.642 263.784h121.89l151.471-318.075h-917.93l151.471 318.075z" />
<glyph unicode="&#xe91d;" glyph-name="placeholder-filled-point" d="M511.984 960c-207.854 0-376.975-169.121-376.975-376.996 0-54.222 11.098-105.991 32.969-153.883 94.254-206.25 274.966-424.007 328.118-485.827 3.982-4.622 9.788-7.283 15.898-7.283s11.915 2.662 15.898 7.283c53.132 61.809 233.843 279.556 328.129 485.827 21.882 47.892 32.969 99.662 32.969 153.883-0.021 207.875-169.142 376.996-377.006 376.996zM511.984 387.192c-107.972 0-195.823 87.851-195.823 195.823 0 107.983 87.851 195.834 195.823 195.834s195.823-87.851 195.823-195.834c0.010-107.972-87.841-195.823-195.823-195.823z" />
<glyph unicode="&#xe91e;" glyph-name="telephone" d="M778.514 282.604c-33.454 33.028-75.219 33.028-108.46 0-25.357-25.144-50.714-50.288-75.645-75.858-6.819-7.032-12.572-8.523-20.882-3.836-16.408 8.95-33.88 16.194-49.649 25.996-73.514 46.239-135.096 105.69-189.645 172.599-27.062 33.241-51.14 68.826-67.974 108.886-3.409 8.097-2.77 13.424 3.836 20.030 25.357 24.505 50.075 49.649 75.006 74.793 34.733 34.946 34.733 75.858-0.213 111.017-19.817 20.030-39.634 39.634-59.451 59.664-20.456 20.456-40.699 41.125-61.368 61.368-33.454 32.602-75.219 32.602-108.46-0.213-25.57-25.144-50.075-50.927-76.071-75.645-24.079-22.8-36.224-50.714-38.781-83.316-4.049-53.058 8.95-103.133 27.275-151.929 37.503-101.002 94.61-190.711 163.862-272.962 93.544-111.23 205.201-199.234 335.822-262.733 58.811-28.553 119.754-50.501 186.023-54.124 45.6-2.557 85.234 8.95 116.984 44.535 21.735 24.292 46.239 46.452 69.253 69.679 34.094 34.52 34.307 76.284 0.426 110.378-40.486 40.699-81.185 81.185-121.884 121.671zM737.814 452.432l78.628 13.424c-12.359 72.236-46.452 137.653-98.232 189.645-54.763 54.763-124.015 89.283-200.3 99.937l-11.080-79.054c59.024-8.31 112.722-34.946 155.126-77.35 40.060-40.060 66.269-90.774 75.858-146.602zM860.764 794.22c-90.774 90.774-205.627 148.094-332.412 165.78l-11.080-79.054c109.526-15.342 208.823-64.991 287.238-143.193 74.367-74.367 123.163-168.337 140.849-271.683l78.628 13.424c-20.669 119.754-77.137 228.427-163.223 314.726z" />
<glyph unicode="&#xe91f;" glyph-name="phone-call" d="M809.283 325.668c-20.964 21.828-46.25 33.499-73.049 33.499-26.583 0-52.085-11.454-73.914-33.283l-68.295-68.078c-5.619 3.026-11.238 5.835-16.641 8.645-7.78 3.89-15.129 7.564-21.396 11.454-63.972 40.631-122.109 93.581-177.869 162.092-27.015 34.147-45.17 62.892-58.353 92.068 17.722 16.209 34.147 33.067 50.14 49.276 6.051 6.051 12.103 12.319 18.154 18.37 45.386 45.386 45.386 104.171 0 149.557l-59.001 59.001c-6.7 6.7-13.616 13.616-20.099 20.532-12.967 13.4-26.583 27.231-40.631 40.199-20.964 20.748-46.034 31.77-72.401 31.77s-51.869-11.022-73.482-31.77c-0.216-0.216-0.216-0.216-0.432-0.432l-73.482-74.13c-27.664-27.664-43.441-61.379-46.899-100.497-5.187-63.108 13.4-121.893 27.664-160.363 35.012-94.445 87.313-181.975 165.333-275.772 94.662-113.032 208.558-202.29 338.664-265.182 49.708-23.557 116.058-51.437 190.188-56.192 4.539-0.216 9.293-0.432 13.616-0.432 49.924 0 91.852 17.938 124.703 53.598 0.216 0.432 0.648 0.648 0.864 1.081 11.238 13.616 24.206 25.935 37.821 39.118 9.293 8.861 18.803 18.154 28.096 27.88 21.396 22.261 32.634 48.195 32.634 74.778 0 26.799-11.454 52.518-33.283 74.13l-118.651 119.083zM886.654 98.092c-0.216 0-0.216-0.216 0 0-8.429-9.077-17.074-17.29-26.367-26.367-14.048-13.4-28.312-27.448-41.712-43.224-21.828-23.341-47.547-34.363-81.262-34.363-3.242 0-6.7 0-9.942 0.216-64.188 4.106-123.838 29.176-168.575 50.573-122.325 59.217-229.738 143.289-318.996 249.837-73.698 88.826-122.974 170.953-155.608 259.131-20.099 53.814-27.448 95.742-24.206 135.293 2.161 25.286 11.887 46.25 29.825 64.188l73.698 73.698c10.59 9.942 21.828 15.345 32.851 15.345 13.616 0 24.638-8.213 31.554-15.129 0.216-0.216 0.432-0.432 0.648-0.648 13.183-12.319 25.719-25.070 38.902-38.686 6.7-6.916 13.616-13.832 20.532-20.964l59.001-59.001c22.909-22.909 22.909-44.089 0-66.998-6.268-6.268-12.319-12.535-18.587-18.587-18.154-18.587-35.444-35.876-54.247-52.734-0.432-0.432-0.864-0.648-1.081-1.081-18.587-18.587-15.129-36.741-11.238-49.060 0.216-0.648 0.432-1.297 0.648-1.945 15.345-37.173 36.957-72.185 69.807-113.896l0.216-0.216c59.65-73.482 122.541-130.754 191.917-174.627 8.861-5.619 17.938-10.158 26.583-14.48 7.78-3.89 15.129-7.564 21.396-11.454 0.864-0.432 1.729-1.081 2.593-1.513 7.348-3.674 14.264-5.403 21.396-5.403 17.938 0 29.176 11.238 32.851 14.912l73.914 73.914c7.348 7.348 19.019 16.209 32.634 16.209 13.4 0 24.422-8.429 31.122-15.777 0.216-0.216 0.216-0.216 0.432-0.432l119.083-119.083c22.261-22.044 22.261-44.737 0.216-67.646zM553.394 716.417c56.624-9.509 108.061-36.309 149.124-77.372s67.646-92.5 77.372-149.124c2.377-14.264 14.696-24.206 28.744-24.206 1.729 0 3.242 0.216 4.971 0.432 15.993 2.593 26.583 17.722 23.99 33.715-11.671 68.511-44.089 130.97-93.581 180.462s-111.951 81.91-180.462 93.581c-15.993 2.593-30.905-7.997-33.715-23.773s7.564-31.122 23.557-33.715zM1022.811 508.292c-19.235 112.816-72.401 215.474-154.095 297.168s-184.352 134.86-297.168 154.095c-15.777 2.81-30.689-7.997-33.499-23.773-2.593-15.993 7.997-30.905 23.99-33.715 100.713-17.074 192.565-64.837 265.614-137.67 73.049-73.049 120.596-164.901 137.67-265.614 2.377-14.264 14.696-24.206 28.744-24.206 1.729 0 3.242 0.216 4.971 0.432 15.777 2.377 26.583 17.506 23.773 33.283z" />
<glyph unicode="&#xe920;" glyph-name="chat" d="M170.667 525.397h221.867c9.438 0 17.067 7.646 17.067 17.067s-7.629 17.067-17.067 17.067h-221.867c-9.438 0-17.067-7.646-17.067-17.067s7.629-17.067 17.067-17.067zM614.4 457.131h-443.733c-9.438 0-17.067-7.646-17.067-17.067s7.629-17.067 17.067-17.067h443.733c9.438 0 17.067 7.646 17.067 17.067s-7.629 17.067-17.067 17.067zM614.4 354.731h-443.733c-9.438 0-17.067-7.646-17.067-17.067s7.629-17.067 17.067-17.067h443.733c9.438 0 17.067 7.646 17.067 17.067s-7.629 17.067-17.067 17.067zM922.829 916.736l-582.69 1.195c-55.808 0-101.205-45.397-101.205-101.205v-87.45l-137.728-0.29c-55.808 0-101.205-45.397-101.205-101.205v-360.806c0-55.808 45.397-101.188 101.205-101.188h103.595v-170.667c0-7.049 4.335-13.38 10.923-15.923 1.997-0.768 4.079-1.143 6.144-1.143 4.71 0 9.335 1.963 12.629 5.581l165.615 182.187 283.75 1.161c55.808 0 101.205 45.397 101.205 101.188v1.929l89.771-98.748c3.294-3.618 7.919-5.581 12.629-5.581 2.065 0 4.147 0.375 6.144 1.143 6.588 2.543 10.923 8.875 10.923 15.923v170.667h18.261c55.808 0 101.205 45.397 101.205 101.188v360.841c0 55.791-45.38 101.188-101.171 101.205zM750.933 268.186c0-36.983-30.089-67.055-67.14-67.055l-291.328-1.195c-4.779-0.017-9.353-2.048-12.561-5.581l-140.971-155.085v143.599c0 9.421-7.629 17.067-17.067 17.067h-120.661c-36.983 0-67.072 30.089-67.072 67.055v360.806c0 36.983 30.089 67.072 67.106 67.072l154.761 0.324c0 0 0 0 0 0 0.017 0 0.017 0 0.034 0l427.827 0.887c36.983 0 67.072-30.089 67.072-67.072v-360.823zM989.867 454.724c0-36.983-30.089-67.055-67.072-67.055h-35.328c-9.438 0-17.067-7.646-17.067-17.067v-143.599l-85.333 93.867v308.122c0 55.808-45.397 101.205-101.239 101.205l-410.761-0.836v87.381c0 36.983 30.089 67.072 67.038 67.072l582.673-1.195c0.017 0 0.017 0 0.034 0 36.983 0 67.072-30.089 67.072-67.072v-360.823z" />
<glyph unicode="&#xe921;" glyph-name="comment" d="M859.518 890.998h-696.035c-72.773 0-131.982-59.197-131.982-131.982v-425.959c0-72.621 58.951-131.725 131.514-131.982v-193.295l277.787 193.295h418.717c72.773 0 131.982 59.209 131.982 131.982v425.959c0 72.785-59.209 131.982-131.982 131.982zM935.25 333.057c0-41.754-33.973-75.732-75.732-75.732h-436.365l-203.889-141.879v141.879h-55.781c-41.76 0-75.732 33.979-75.732 75.732v425.959c0 41.766 33.973 75.732 75.732 75.732h696.035c41.76 0 75.732-33.967 75.732-75.732zM288.439 692.242h446.121v-56.25h-446.121zM288.439 572.242h446.121v-56.25h-446.121zM288.439 452.242h446.121v-56.25h-446.121z" />
<glyph unicode="&#xe922;" glyph-name="timetable" d="M964 375.5v492.5c0 16.57-13.43 30-30 30h-152v32c0 16.57-13.43 30-30 30s-30-13.43-30-30v-32h-120v32c0 16.57-13.43 30-30 30s-30-13.43-30-30v-32h-120v32c0 16.57-13.43 30-30 30s-30-13.43-30-30v-32h-120v32c0 16.57-13.43 30-30 30s-30-13.43-30-30v-32h-152c-16.57 0-30-13.43-30-30v-782c0-16.57 13.43-30 30-30h499.609c48.5-72.305 130.977-120 224.391-120 148.875 0 270 121.125 270 270 0 64.141-22.5 123.125-60 169.5zM182 838v-30c0-16.57 13.43-30 30-30s30 13.43 30 30v30h120v-30c0-16.57 13.43-30 30-30s30 13.43 30 30v30h120v-30c0-16.57 13.43-30 30-30s30 13.43 30 30v30h120v-30c0-16.57 13.43-30 30-30s30 13.43 30 30v30h122v-120h-844v120zM60 116v542h844v-227.609c-42.93 28.789-94.539 45.609-150 45.609-94.797 0-178.328-49.117-226.516-123.227-4.055 2.047-8.625 3.227-13.484 3.227h-60c-16.57 0-30-13.43-30-30s13.43-30 30-30h45.445c-6.773-19.109-11.461-39.203-13.766-60h-31.68c-16.57 0-30-13.43-30-30s13.43-30 30-30h31.68c2.305-20.797 6.984-40.891 13.766-60zM754-4c-115.797 0-210 94.203-210 210s94.203 210 210 210 210-94.203 210-210-94.203-210-210-210zM874 236h-90v90c0 16.57-13.43 30-30 30s-30-13.43-30-30v-120c0-16.57 13.43-30 30-30h120c16.57 0 30 13.43 30 30s-13.43 30-30 30zM272 596h-60c-16.57 0-30-13.43-30-30s13.43-30 30-30h60c16.57 0 30 13.43 30 30s-13.43 30-30 30zM272 476h-60c-16.57 0-30-13.43-30-30s13.43-30 30-30h60c16.57 0 30 13.43 30 30s-13.43 30-30 30zM272 356h-60c-16.57 0-30-13.43-30-30s13.43-30 30-30h60c16.57 0 30 13.43 30 30s-13.43 30-30 30zM454 536h60c16.57 0 30 13.43 30 30s-13.43 30-30 30h-60c-16.57 0-30-13.43-30-30s13.43-30 30-30zM454 416h60c16.57 0 30 13.43 30 30s-13.43 30-30 30h-60c-16.57 0-30-13.43-30-30s13.43-30 30-30zM272 236h-60c-16.57 0-30-13.43-30-30s13.43-30 30-30h60c16.57 0 30 13.43 30 30s-13.43 30-30 30zM694 536h60c16.57 0 30 13.43 30 30s-13.43 30-30 30h-60c-16.57 0-30-13.43-30-30s13.43-30 30-30z" />
<glyph unicode="&#xe923;" glyph-name="unlink" d="M953.251 889.195c-94.407 94.407-248.032 94.369-342.457 0l-171.229-171.229c-14.548-14.548-14.548-38.132 0-52.68s38.132-14.548 52.68 0l171.229 171.229c31.5 31.481 73.599 48.843 118.53 48.843 44.949 0 87.049-17.361 118.549-48.861s48.861-73.599 48.861-118.549c0-44.931-17.361-87.030-48.861-118.53l-223.89-223.946c-65.384-65.347-171.732-65.347-237.116 0-14.548 14.548-38.132 14.548-52.68 0s-14.548-38.15 0-52.68c47.203-47.203 109.216-70.805 171.229-70.805s124.025 23.602 171.229 70.805l223.927 223.927c45.583 45.564 70.693 106.385 70.693 171.229 0 64.863-25.111 125.665-70.693 171.247zM505.415 204.262l-144.889-144.889c-31.5-31.5-73.599-48.861-118.549-48.861-44.931 0-87.049 17.361-118.549 48.861-65.366 65.366-65.366 171.732 0 237.097l210.757 210.757c31.5 31.481 73.599 48.843 118.549 48.843 44.931 0 87.030-17.361 118.53-48.843 14.548-14.548 38.132-14.548 52.68 0s14.548 38.132 0 52.68c-94.388 94.388-248.013 94.407-342.457 0l-210.757-210.776c-45.564-45.564-70.675-106.385-70.675-171.229 0-64.825 25.111-125.646 70.693-171.21 45.564-45.583 106.385-70.693 171.21-70.693 64.844 0 125.665 25.111 171.229 70.693l144.889 144.889c14.548 14.548 14.548 38.132 0 52.68s-38.113 14.548-52.661 0z" />
<glyph unicode="&#xe924;" glyph-name="play-arrow" d="M937.186 491.177l-801.028 462.195c-32.896 18.915-74.017-4.934-74.017-42.765v-925.212c0-37.831 41.121-61.681 74.017-42.765l801.028 462.195c32.896 19.746 32.896 67.438 0 86.353z" />
<glyph unicode="&#xe925;" glyph-name="portfolio" d="M422 418h180v-60h-180zM830.758 358h-168.758v-30c0-16.578-13.422-30-30-30h-240c-16.578 0-30 13.422-30 30v30h-168.758c-38.789 0-73.094 24.727-85.375 61.523l-107.867 323.656v-655.18c0-49.625 40.375-90 90-90h844c49.625 0 90 40.375 90 90v655.156l-107.875-323.633c-12.273-36.797-46.578-61.523-85.367-61.523zM632 898h-240c-49.625 0-90-40.375-90-90v-30h-250.383l113.148-339.492c4.102-12.273 15.555-20.508 28.477-20.508h168.758v30c0 16.578 13.422 30 30 30h240c16.578 0 30-13.422 30-30v-30h168.758c12.922 0 24.375 8.234 28.477 20.508l113.156 339.492h-250.391v30c0 49.625-40.375 90-90 90zM362 778v30c0 16.555 13.445 30 30 30h240c16.555 0 30-13.445 30-30v-30z" />
<glyph unicode="&#xe926;" glyph-name="money-bag" d="M546.488 317.286h-58.545c-21.289 0-38.533 17.244-38.533 38.533s17.244 38.533 38.533 38.533h103.039c14.051 0 25.547 11.496 25.547 25.547s-11.496 25.547-25.547 25.547h-48.326v35.553c0 14.051-11.496 25.547-25.547 25.547s-25.547-11.496-25.547-25.547v-35.553h-3.619c-49.39 0-89.627-40.236-89.627-89.627s40.236-89.627 89.627-89.627h58.545c21.289 0 38.533-17.244 38.533-38.533s-17.244-38.533-38.533-38.533h-104.955c-14.051 0-25.547-11.496-25.547-25.547s11.496-25.547 25.547-25.547h50.242v-36.404c0-14.051 11.496-25.547 25.547-25.547s25.547 11.496 25.547 25.547v36.404h4.258c0.213 0 0.426 0 0.639 0 48.965 0.639 88.349 40.662 88.349 89.627 0 49.39-40.236 89.627-89.627 89.627zM901.163 375.192c-26.824 61.738-63.867 121.56-110.703 177.55-56.629 68.125-113.044 113.683-141.785 134.759l108.574 201.394c5.322 10.006 3.619 22.353-4.684 30.23-28.101 27.463-57.906 40.875-91.117 40.875-30.443 0-58.332-11.496-82.601-21.715-19.16-7.877-37.256-15.541-51.945-15.541-4.471 0-8.303 0.639-12.135 2.129-50.668 18.521-89.627 30.017-127.308 30.017-47.687 0-88.349-19.16-128.16-60.035-8.303-8.516-9.58-21.928-2.98-31.933l117.089-176.911c-28.953-21.502-84.304-66.635-139.869-133.269-46.623-55.99-83.879-115.812-110.703-177.55-33.637-77.705-50.668-158.816-50.668-240.991 0-109.212 88.988-198.2 198.2-198.2h483.26c109.212 0 198.2 88.988 198.2 198.2 0 82.175-17.031 163.286-50.668 240.991zM310.819 873.567c24.695 21.289 48.326 30.656 76.64 30.656 30.23 0 64.293-10.219 109.638-27.037 9.367-3.406 19.373-5.109 29.592-5.109 24.908 0 48.752 9.793 71.531 19.373 21.928 9.154 42.791 17.883 63.015 17.883 9.793 0 23.631-1.703 41.088-14.051l-102.187-189.898h-177.976l-111.341 168.183zM753.63-12.906h-483.26c-81.111 0-147.107 65.996-147.107 147.107 0 136.462 50.029 265.899 148.384 384.692 62.164 75.15 125.392 121.773 144.552 135.398h191.175c19.373-13.412 82.388-60.248 144.552-135.398 98.568-118.793 148.384-248.017 148.384-384.692 0.426-81.111-65.57-147.107-146.681-147.107z" />
<glyph unicode="&#xe927;" glyph-name="portfolio-1" d="M994.188 777.992c-0.063 0-0.125 0.008-0.188 0.008h-272v30c0 49.625-40.375 90-90 90h-240c-49.625 0-90-40.375-90-90v-30h-272c-16.703 0-30-13.688-30-30v-660c0-49.625 40.375-90 90-90h844c49.625 0 90 40.375 90 90v659.367c0 0.039 0 0.078 0 0.117-1.148 19.703-13.266 30.398-29.813 30.508zM362 808c0 16.539 13.461 30 30 30h240c16.539 0 30-13.461 30-30v-30h-300zM952.375 718l-93.164-279.484c-4.086-12.273-15.523-20.516-28.453-20.516h-168.758v30c0 16.57-13.43 30-30 30h-240c-16.57 0-30-13.43-30-30v-30h-168.758c-12.93 0-24.367 8.242-28.453 20.516l-93.164 279.484zM602 418v-60h-180v60zM964 88c0-16.539-13.461-30-30-30h-844c-16.539 0-30 13.461-30 30v475.133l47.867-143.594c12.266-36.813 46.578-61.539 85.375-61.539h168.758v-30c0-16.57 13.43-30 30-30h240c16.57 0 30 13.43 30 30v30h168.758c38.797 0 73.109 24.727 85.375 61.539l47.867 143.594z" />
<glyph unicode="&#xe928;" glyph-name="award" d="M934 960c-14.523 0-829.531 0-844 0-49.625 0-90-40.375-90-90v-45.711c0-74.039 25.469-146.656 71.727-204.469 38.469-48.086 93.188-85.75 154.078-106.047l31.797-10.594c36.93-60.172 94.852-106.523 164.398-128.539v-46.641c0-16.539-13.461-30-30-30-49.625 0-90-40.375-90-90v-30h-30c-16.57 0-30-13.43-30-30v-152h-30c-16.57 0-30-13.43-30-30s13.43-30 30-30h600c16.57 0 30 13.43 30 30s-13.43 30-30 30h-30v152c0 16.57-13.43 30-30 30h-30v30c0 49.625-40.375 90-90 90-16.539 0-30 13.461-30 30v46.641c69.469 21.992 127.336 68.258 164.273 128.336l33.531 10.672c0.125 0.039 0.258 0.086 0.383 0.125 59.992 20 112.586 56.672 152.086 106.047 46.258 57.813 71.727 130.43 71.727 204.469v45.711c0 49.625-40.375 90-90 90zM118.578 657.305c-37.773 47.219-58.578 106.516-58.578 166.984v45.711c0 16.539 13.461 30 30 30h95.148l30.531-274.781c1.789-16.070 4.906-31.766 9.172-47-41.953 17.633-79.164 45.203-106.273 79.086zM302-4v122h420v-122zM565.273 426.766c-13.625-3.133-23.273-15.258-23.273-29.234v-69.531c0-49.625 40.375-90 90-90 16.539 0 30-13.461 30-30v-30h-300v30c0 16.539 13.461 30 30 30 49.625 0 90 40.375 90 90v69.531c0 13.977-9.648 26.102-23.273 29.234-98.602 22.688-172.305 105.102-183.414 205.078l-29.797 268.156h532.969l-29.797-268.156c-11.109-99.977-84.813-182.391-183.414-205.078zM964 824.289c0-60.469-20.805-119.766-58.578-166.984-28.32-35.406-64.883-62.797-106.539-80.016 4.406 15.531 7.609 31.531 9.438 47.93l30.531 274.781h95.148c16.539 0 30-13.461 30-30zM636.211 754.578l-67.414 9.563-30.023 59.391c-5.102 10.102-15.461 16.469-26.773 16.469s-21.672-6.367-26.773-16.469l-30.023-59.391-67.422-9.563c-11.383-1.617-20.844-9.602-24.352-20.555s-0.445-22.953 7.883-30.875l48.359-46.023-11.383-64.789c-1.969-11.219 2.578-22.586 11.742-29.344 9.188-6.766 21.391-7.727 31.5-2.539l60.469 31.039 60.461-31.039c10.133-5.203 22.336-4.219 31.5 2.539 9.172 6.766 13.719 18.125 11.75 29.344l-11.383 64.789 48.352 46.023c8.336 7.93 11.398 19.922 7.891 30.875s-12.969 18.938-24.359 20.555zM551.32 689.508c-7.281-6.93-10.609-17.031-8.867-26.93l3.719-21.188-20.477 10.508c-8.594 4.414-18.797 4.414-27.398 0l-20.477-10.508 3.727 21.188c1.734 9.898-1.594 20-8.867 26.93l-15.102 14.367 21.555 3.063c9.711 1.375 18.133 7.414 22.555 16.164l10.313 20.398 10.305-20.391c4.43-8.758 12.852-14.797 22.563-16.172l21.555-3.055z" />
<glyph unicode="&#xe929;" glyph-name="winner" d="M803.554 685.718h-583.108c-8.292 0-15.012-6.72-15.012-15.012s6.72-15.012 15.012-15.012h583.108c8.292 0 15.012 6.72 15.012 15.012s-6.72 15.012-15.012 15.012zM803.554 522.262h-583.108c-8.292 0-15.012-6.72-15.012-15.012 0-8.29 6.72-15.012 15.012-15.012h583.108c8.292 0 15.012 6.72 15.012 15.012s-6.72 15.012-15.012 15.012zM612.386 416.182h-200.772c-8.292 0-15.012-6.72-15.012-15.012 0-8.29 6.72-15.012 15.012-15.012h200.772c8.292 0 15.012 6.72 15.012 15.012s-6.72 15.012-15.012 15.012zM803.554 604.324h-434.948c-8.292 0-15.012-6.72-15.012-15.012 0-8.29 6.72-15.012 15.012-15.012h434.948c8.292 0 15.012 6.72 15.012 15.012s-6.72 15.012-15.012 15.012zM298.762 604.326h-78.316c-8.292 0-15.012-6.72-15.012-15.012s6.72-15.012 15.012-15.012h78.316c8.292 0 15.012 6.72 15.012 15.012 0 8.29-6.72 15.012-15.012 15.012zM946.502 711.090c-3.492 3.43-8.114 5.318-13.044 5.318-0.004 0-0.006 0-0.010 0-30.426 0-55.328 23.784-56.698 54.156-0.45 9.876-8.566 17.61-18.476 17.61h-696.12c-9.912 0-18.030-7.736-18.478-17.62-1.306-29.022-25.064-52.782-54.088-54.088-9.88-0.444-17.618-8.562-17.618-18.478v-388.042c0-9.916 7.738-18.032 17.618-18.476 29.024-1.308 52.782-25.066 54.088-54.098 0.45-9.876 8.568-17.61 18.478-17.61h443.154c8.292 0 15.012 6.72 15.012 15.012 0 8.29-6.72 15.012-15.012 15.012h-432.83c-6.206 36.158-34.328 64.28-70.486 70.488v367.392c36.158 6.206 64.28 34.334 70.486 70.486h675.478c6.46-37.3 36.49-66.092 74.052-71.020v-254.938c0-8.29 6.72-15.012 15.012-15.012s15.012 6.72 15.012 15.012v265.71c0 4.998-1.964 9.682-5.53 13.186zM982.33 863.11h-940.66c-22.976 0-41.67-18.694-41.67-41.67v-634.94c0-22.978 18.694-41.67 41.67-41.67h630.096l-22.308-46.746c-2.866-6.002-2.168-13.040 1.816-18.364 3.986-5.326 10.544-7.972 17.106-6.922l41.532 6.676 23.166-38.026c3.248-5.336 9.020-8.556 15.222-8.556 0.302 0 0.606 0.008 0.91 0.024 6.544 0.332 12.362 4.212 15.188 10.128l40.252 84.346 40.248-84.34c2.82-5.916 8.638-9.8 15.184-10.136 0.306-0.016 0.614-0.024 0.918-0.024 6.202 0 11.974 3.22 15.222 8.554l23.166 38.026 41.532-6.678c6.582-1.052 13.128 1.602 17.11 6.93 3.984 5.328 4.676 12.364 1.81 18.356l-22.308 46.746h44.798c22.976 0 41.67 18.692 41.67 41.67v634.946c0 22.976-18.694 41.67-41.67 41.67zM747.002 76.3l-15.714 25.79c-3.784 6.212-10.868 9.48-18.056 8.326l-26.668-4.288 28.092 58.864c11.072-11.298 26.846-17.402 43.22-15.86 5.598 0.536 11.21-0.972 15.796-4.23 1.512-1.076 3.082-2.030 4.672-2.93l-31.342-65.672zM808.23 165.316c-0.046-0.006-0.092-0.010-0.14-0.018-2.276-0.336-4.59-0.336-6.866-0.002-0.058 0.008-0.116 0.014-0.172 0.022-3.526 0.546-6.954 1.896-9.99 4.054-9.080 6.456-19.922 9.888-30.982 9.888-1.676 0-3.356-0.080-5.036-0.238-9.938-0.938-19.38 4.52-23.528 13.584-1.842 4.024-4.192 7.748-6.92 11.154-0.12 0.17-0.252 0.33-0.378 0.494-0.152 0.184-0.294 0.374-0.446 0.556-0.174 0.204-0.356 0.398-0.542 0.592-4.964 5.712-11.098 10.376-18.084 13.572-9.066 4.148-14.524 13.604-13.584 23.53 1.208 12.772-2.218 25.564-9.65 36.018-5.778 8.126-5.778 19.044-0.002 27.17 7.434 10.454 10.86 23.246 9.652 36.018-0.94 9.926 4.52 19.382 13.584 23.53 11.666 5.338 21.030 14.702 26.368 26.368 4.15 9.066 13.626 14.526 23.53 13.584 12.786-1.206 25.566 2.22 36.020 9.652 8.128 5.776 19.046 5.776 27.17 0 10.456-7.432 23.238-10.85 36.020-9.652 9.934 0.944 19.384-4.52 23.532-13.584 5.338-11.666 14.702-21.030 26.366-26.366 9.066-4.15 14.526-13.606 13.586-23.53-1.208-12.774 2.218-25.566 9.65-36.018 5.778-8.126 5.778-19.044 0-27.17-7.432-10.456-10.858-23.248-9.65-36.018 0.94-9.926-4.52-19.382-13.588-23.532-6.97-3.19-13.090-7.842-18.048-13.536-0.204-0.212-0.404-0.426-0.592-0.648-0.13-0.156-0.252-0.318-0.382-0.476-0.15-0.192-0.302-0.38-0.442-0.578-2.72-3.4-5.064-7.116-6.9-11.13-4.15-9.064-13.606-14.526-23.532-13.584-12.76 1.202-25.56-2.218-36.020-9.65-3.040-2.16-6.472-3.512-10.004-4.056zM896.066 110.418c-7.19 1.15-14.27-2.116-18.056-8.33l-15.712-25.79-31.342 65.674c1.59 0.9 3.158 1.854 4.672 2.93 4.588 3.26 10.204 4.772 15.796 4.232 16.38-1.544 32.15 4.56 43.222 15.858l28.090-58.862-26.67 4.288zM993.978 186.498c0-6.422-5.224-11.648-11.648-11.648h-59.126l-7.74 16.22c0.39 0.206 0.778 0.422 1.182 0.606 20.672 9.462 33.122 31.026 30.98 53.658-0.53 5.6 0.972 11.21 4.232 15.796 13.172 18.53 13.172 43.43-0.002 61.96-3.258 4.584-4.76 10.192-4.23 15.794 2.142 22.632-10.308 44.196-30.982 53.658-5.114 2.342-9.22 6.448-11.562 11.562-9.46 20.674-31.034 33.12-53.66 30.98-5.604-0.534-11.21 0.972-15.794 4.232-18.53 13.172-43.432 13.174-61.96 0-4.586-3.26-10.208-4.766-15.794-4.23-22.66 2.132-44.2-10.308-53.658-30.98-2.342-5.116-6.448-9.22-11.564-11.562-20.672-9.462-33.122-31.024-30.98-53.658 0.53-5.602-0.972-11.21-4.232-15.796-13.172-18.53-13.172-43.43 0-61.958 3.26-4.584 4.762-10.194 4.232-15.796-2.142-22.634 10.308-44.198 30.98-53.658 0.404-0.184 0.79-0.4 1.18-0.606l-7.74-16.222h-644.422c-6.422 0-11.648 5.224-11.648 11.648v634.942c0 6.422 5.224 11.648 11.648 11.648h940.66c6.422 0 11.648-5.226 11.648-11.648v-634.942zM803.554 385.376c-51.428 0-93.268-41.84-93.268-93.266 0-51.428 41.84-93.268 93.268-93.268s93.266 41.842 93.266 93.268c0 51.428-41.838 93.266-93.266 93.266zM803.554 228.866c-34.874 0-63.246 28.372-63.246 63.246 0 34.872 28.372 63.244 63.246 63.244 34.872 0 63.244-28.372 63.244-63.244 0-34.874-28.372-63.246-63.244-63.246z" />
<glyph unicode="&#xe92a;" glyph-name="trophy" d="M993.998 886.093h-131.406c0.477 14.555 0.742 29.195 0.742 43.906 0 16.57-13.437 30-30 30h-642.671c-16.562 0-30-13.43-30-30 0-14.711 0.266-29.352 0.742-43.906h-131.406c-16.57 0-30-13.43-30-30 0-134.422 35.133-261.242 98.922-357.109 63.055-94.773 147.047-149.133 237.781-154.422 20.57-22.383 42.312-40.633 64.961-54.555v-133.336h-50.328c-60.844 0-110.336-49.5-110.336-110.336v-50.328h-2.133c-16.57 0-30-13.437-30-30 0-16.57 13.43-30 30-30h546.265c16.57 0 30 13.43 30 30 0 16.562-13.43 30-30 30h-2.133v50.328c0 60.836-49.492 110.336-110.336 110.336h-50.328v133.336c22.648 13.914 44.398 32.172 64.969 54.555 90.726 5.289 174.718 59.648 237.781 154.422 63.789 95.867 98.914 222.687 98.914 357.109 0 16.57-13.43 30-30 30zM148.875 532.219c-52.617 79.070-83.531 182.492-88.242 293.874h104.125c10.82-136.922 42.961-263.484 93.195-363.945 8-16 16.367-31.117 25.047-45.351-49.898 18.844-96.078 58.234-134.125 115.422zM722.999 46.337v-50.336h-421.999v50.336c0 27.75 22.578 50.336 50.336 50.336h321.328c27.758 0 50.336-22.586 50.336-50.336zM562.335 156.672h-100.672v107.265c16.492-4.344 33.297-6.602 50.336-6.602s33.844 2.258 50.336 6.602zM580.913 335.313c-1.352-0.555-2.648-1.227-3.891-1.969-21.203-10.547-42.992-16.008-65.023-16.008-22.023 0-43.805 5.461-65 15.992-1.258 0.758-2.562 1.43-3.93 2-23.523 12.437-46.281 31.219-67.805 55.898-1.133 1.617-2.406 3.109-3.82 4.469-21.367 25.367-41.469 56.57-59.828 93.289-55.133 110.258-86.976 255.234-90.601 411.015h581.968c-3.633-155.781-35.476-300.765-90.601-411.015-18.359-36.719-38.461-67.922-59.82-93.289-1.422-1.359-2.711-2.859-3.836-4.477-21.523-24.687-44.289-43.461-67.812-55.906zM875.123 532.219c-38.047-57.187-84.226-96.578-134.125-115.422 8.68 14.234 17.047 29.352 25.047 45.351 50.234 100.461 82.367 227.023 93.195 363.945h104.125c-4.711-111.383-35.625-214.804-88.242-293.874z" />
<glyph unicode="&#xe92b;" glyph-name="map" d="M1024 283.038v330.162c0 7.233-4.758 13.608-11.691 15.665l-152.757 45.322c11.824 28.923 19.195 57.629 19.195 84.282 0 111.124-90.406 201.532-201.532 201.532s-201.532-90.406-201.532-201.532c0-26.652 7.371-55.359 19.195-84.282l-148.107-43.943-325.782 96.666c-4.941 1.462-10.288 0.512-14.421-2.571s-6.567-7.939-6.567-13.096v-330.573c0-0.039 0-0.081 0-0.12v-330.166c0-7.233 4.756-13.608 11.693-15.665l330.183-97.971c0.096-0.028 0.246-0.072 0.246-0.072 0.052-0.015 0.107-0.020 0.159-0.035 0.608-0.174 1.231-0.307 1.867-0.41 0.17-0.028 0.34-0.057 0.512-0.078 0.684-0.089 1.377-0.148 2.083-0.15 0.758 0 1.453 0.061 2.14 0.15 0.17 0.022 0.338 0.050 0.508 0.078 0.636 0.102 1.261 0.237 1.872 0.41 0.052 0.015 0.107 0.020 0.159 0.035l0.15 0.046c0.096 0.028 319.024 94.655 319.024 94.655 2.026-0.9 4.262-1.41 6.621-1.41s4.597 0.51 6.621 1.41l319.174-94.698c1.527-0.453 3.092-0.675 4.649-0.675 3.482 0 6.917 1.113 9.774 3.246 4.131 3.085 6.567 7.939 6.567 13.094v330.565c-0.002 0.044-0.002 0.087-0.002 0.131zM991.319 601.003v-296.341l-297.764 88.347v46.477c21.308 21.942 104.988 111.104 152.24 204.693l145.523-43.176zM677.215 927.319c93.103 0 168.851-75.745 168.851-168.851 0-26.539-8.878-56.098-22.685-86.027-0.684-1.094-1.246-2.281-1.667-3.558-39.374-83.116-115.536-168.306-144.504-199.127-28.951 30.788-105.043 115.86-144.432 198.948-0.442 1.399-1.059 2.695-1.815 3.878-13.756 29.875-22.6 59.379-22.6 85.887 0 93.103 75.748 168.849 168.851 168.849zM660.874 439.488v-46.477l-297.764-88.347v296.339l145.523 43.176c47.254-93.589 130.933-182.751 152.24-204.691zM32.681 358.921l112.897-33.498c1.551-0.46 3.116-0.68 4.654-0.68 7.048 0 13.552 4.595 15.658 11.698 2.569 8.652-2.364 17.746-11.018 20.312l-122.192 36.256v296.341l297.749-88.347v-296.341l-112.895 33.498c-8.65 2.571-17.746-2.364-20.312-11.018-2.569-8.652 2.364-17.746 11.018-20.312l122.192-36.256v-296.341l-297.751 88.347v296.341zM693.555 62.579v118.298c0 9.024-7.314 16.34-16.34 16.34s-16.34-7.316-16.34-16.34v-118.298l-297.764-88.345v296.339l297.764 88.347v-112.681c0-9.024 7.314-16.34 16.34-16.34s16.34 7.316 16.34 16.34v112.681l297.764-88.347v-296.341l-297.764 88.347zM677.215 644.085c63.070 0 114.383 51.311 114.383 114.383 0 63.070-51.313 114.383-114.383 114.383s-114.383-51.311-114.383-114.383c0-63.070 51.313-114.383 114.383-114.383zM677.215 840.17c45.052 0 81.702-36.65 81.702-81.702s-36.65-81.702-81.702-81.702-81.702 36.65-81.702 81.702c0 45.052 36.65 81.702 81.702 81.702z" />
<glyph unicode="&#xe92c;" glyph-name="magnifying-glass" d="M1015.031-11.778l-248.848 248.848c66.753 76.743 107.168 176.873 107.168 286.311 0 240.901-195.945 436.619-436.619 436.619-240.901 0-436.619-195.945-436.619-436.619s195.945-436.619 436.619-436.619c109.439 0 209.568 40.415 286.311 107.168l248.848-248.848c5.903-5.903 13.85-9.082 21.57-9.082s15.667 2.952 21.57 9.082c11.807 11.807 11.807 31.333 0 43.14zM61.19 523.381c0 207.071 168.472 375.315 375.315 375.315 207.071 0 375.315-168.472 375.315-375.315s-168.245-375.542-375.315-375.542c-206.843 0-375.315 168.472-375.315 375.542z" />
<glyph unicode="&#xe92d;" glyph-name="magnifying-glass-1" d="M990 27.6l-235.6 235.6c58.4 71.2 93.6 162.4 93.6 261.8 0 228-185 413-413 413-228.2 0-413-185-413-413s184.8-413 413-413c99.4 0 190.4 35 261.6 93.4l235.6-235.4c16-16 41.8-16 57.8 0 16 15.8 16 41.8 0 57.6zM435 194.2c-182.6 0-331 148.4-331 330.8s148.4 331 331 331c182.4 0 331-148.6 331-331s-148.6-330.8-331-330.8z" />
<glyph unicode="&#xe92e;" glyph-name="menu" d="M31.999 640h959.999c17.665 0 31.999 14.337 31.999 31.999 0 17.665-14.337 31.999-31.999 31.999h-959.999c-17.665 0-31.999-14.337-31.999-31.999s14.337-31.999 31.999-31.999zM991.998 479.999h-959.999c-17.665 0-31.999-14.337-31.999-31.999s14.337-31.999 31.999-31.999h959.999c17.665 0 31.999 14.337 31.999 31.999s-14.334 31.999-31.999 31.999zM991.998 256h-639.999c-17.665 0-31.999-14.337-31.999-31.999 0-17.665 14.337-31.999 31.999-31.999h639.999c17.665 0 31.999 14.337 31.999 31.999 0.003 17.665-14.334 31.999-31.999 31.999z" />
<glyph unicode="&#xe92f;" glyph-name="shopping-cart" d="M329.922 297.992h0.047c0.039 0 0.078 0.008 0.117 0.008h543.914c13.391 0 25.164 8.883 28.844 21.758l120 420c2.586 9.055 0.773 18.789-4.891 26.305-5.672 7.516-14.539 11.937-23.953 11.937h-733.265l-21.445 96.508c-3.055 13.727-15.227 23.492-29.289 23.492h-180c-16.57 0-30-13.43-30-30s13.43-30 30-30h155.937c3.797-17.102 102.625-461.836 108.312-487.422-31.883-13.859-54.25-45.648-54.25-82.578 0-49.625 40.375-90 90-90h544c16.57 0 30 13.43 30 30s-13.43 30-30 30h-544c-16.539 0-30 13.461-30 30 0 16.516 13.414 29.953 29.922 29.992zM954.226 718l-102.859-360h-497.304l-80 360zM300 88c0-49.625 40.375-90 90-90s90 40.375 90 90-40.375 90-90 90-90-40.375-90-90zM390 118c16.539 0 30-13.461 30-30s-13.461-30-30-30-30 13.461-30 30 13.461 30 30 30zM724 88c0-49.625 40.375-90 90-90s90 40.375 90 90-40.375 90-90 90-90-40.375-90-90zM814 118c16.539 0 30-13.461 30-30s-13.461-30-30-30-30 13.461-30 30 13.461 30 30 30z" />
<glyph unicode="&#xe930;" glyph-name="shopping-cart-1" d="M429.371 154.342c-49.658 0-90.058-40.4-90.058-90.058s40.4-90.058 90.058-90.058 90.058 40.4 90.058 90.058c-0.002 49.658-40.402 90.058-90.058 90.058zM429.371 24.514c-21.932 0-39.774 17.844-39.774 39.774 0 21.932 17.844 39.774 39.774 39.774s39.774-17.844 39.774-39.774c0-21.934-17.844-39.774-39.774-39.774zM745.261 154.342c-49.658 0-90.058-40.4-90.058-90.058s40.4-90.058 90.058-90.058 90.058 40.4 90.058 90.058c-0.002 49.658-40.402 90.058-90.058 90.058zM745.261 24.514c-21.932 0-39.774 17.844-39.774 39.774 0 21.932 17.844 39.774 39.774 39.774 21.932 0 39.774-17.844 39.774-39.774 0-21.934-17.844-39.774-39.774-39.774zM767.433 628.489h-360.299c-13.886 0-25.142-11.256-25.142-25.142s11.258-25.142 25.142-25.142h360.299c13.886 0 25.142 11.256 25.142 25.142 0 13.888-11.256 25.142-25.142 25.142zM747.823 497.929h-321.077c-13.886 0-25.142-11.256-25.142-25.142s11.256-25.142 25.142-25.142h321.075c13.886 0 25.142 11.256 25.142 25.142 0 13.884-11.256 25.142-25.14 25.142zM1012.684 740.512c-9.588 11.768-23.796 18.516-38.978 18.516h-783.15l-15.816 76.778c-3.302 16.016-14.226 29.464-29.228 35.978l-110.354 47.9c-12.74 5.534-27.546-0.312-33.072-13.048-5.532-12.74 0.314-27.548 13.048-33.074l110.356-47.902 121.652-590.523c4.792-23.256 25.504-40.136 49.25-40.136h602.333c13.886 0 25.142 11.256 25.142 25.142s-11.256 25.142-25.142 25.142h-602.331l-14.798 71.832h621.785c23.744 0 44.458 16.88 49.248 40.136l70.326 341.351c3.062 14.864-0.682 30.142-10.272 41.908zM903.382 367.397h-632.143l-70.322 341.349 772.788-0.002-70.322-341.347z" />
<glyph unicode="&#xe931;" glyph-name="back" d="M311.568 448.027l462.455 462.455c11.374 11.374 11.374 29.614 0 40.988s-29.614 11.374-40.988 0l-483.056-483.056c-11.374-11.374-11.374-29.614 0-40.988l483.056-482.842c5.58-5.58 13.090-8.584 20.387-8.584s14.807 2.79 20.387 8.584c11.374 11.374 11.374 29.614 0 40.988l-462.24 462.455z" />
<glyph unicode="&#xe932;" glyph-name="play-button" d="M777.609 462.097l-375.467 256c-5.239 3.55-11.998 3.942-17.596 0.99-5.581-2.953-9.079-8.755-9.079-15.087v-512c0-6.332 3.499-12.134 9.097-15.087 2.492-1.331 5.239-1.98 7.97-1.98 3.362 0 6.724 1.007 9.609 2.97l375.467 256c4.659 3.174 7.458 8.448 7.458 14.097s-2.799 10.923-7.458 14.097zM409.6 224.307v447.386l328.107-223.693-328.107-223.693zM512 960c-282.317 0-512-229.683-512-512s229.683-512 512-512 512 229.683 512 512-229.683 512-512 512zM512-29.867c-263.492 0-477.867 214.374-477.867 477.867s214.374 477.867 477.867 477.867 477.867-214.374 477.867-477.867-214.374-477.867-477.867-477.867z" />
<glyph unicode="&#xe933;" glyph-name="back-arrow" d="M398.222 647.111v227.556l-398.222-398.222 398.222-398.222v233.244c284.444 0 483.556-91.022 625.778-290.133-56.889 284.444-227.556 568.889-625.778 625.778z" />
<glyph unicode="&#xe934;" glyph-name="growth" d="M903.711 777.661l-34.133 102.399c-2.957 8.949-12.61 13.807-21.559 10.85-0.8-0.265-1.581-0.589-2.334-0.969l-102.399-51.2c-8.435-4.213-11.859-14.468-7.646-22.903s14.468-11.859 22.903-7.646l55.773 27.887c-146.772-268.422-414.443-439.275-694.846-439.275v-34.133c296.582 0 579.204 182.339 730.601 467.793l21.214-63.59c2.978-8.954 12.653-13.798 21.606-10.82s13.798 12.653 10.82 21.606zM1006.929 960h-989.858c-9.425 0-17.067-7.642-17.067-17.067v-767.994c0-9.425 7.642-17.067 17.067-17.067h301.156l-61.439-199.781c-2.771-9.011 2.287-18.562 11.298-21.333s18.562 2.287 21.333 11.298l33.024 107.417h379.116l33.058-107.417c2.771-9.011 12.322-14.069 21.333-11.298s14.069 12.322 11.298 21.333l-61.474 199.781h301.156c9.425 0 17.067 7.642 17.067 17.067v767.994c0 9.425-7.642 17.067-17.067 17.067zM332.938 89.607l21.009 68.266h316.106l21.009-68.266h-358.124zM989.863 192.006h-955.725v733.861h955.725v-733.861zM204.803 328.539h-68.266c-9.425 0-17.067-7.642-17.067-17.067v-68.266c0-9.425 7.642-17.067 17.067-17.067h68.266c9.425 0 17.067 7.642 17.067 17.067v68.266c0 9.425-7.642 17.067-17.067 17.067zM187.736 260.272h-34.133v34.133h34.133v-34.133zM375.468 362.672h-68.266c-9.425 0-17.067-7.642-17.067-17.067v-102.399c0-9.425 7.642-17.067 17.067-17.067h68.266c9.425 0 17.067 7.642 17.067 17.067v102.399c0 9.425-7.642 17.067-17.067 17.067zM358.401 260.272h-34.133v68.266h34.133v-68.266zM546.133 430.938h-68.266c-9.425 0-17.067-7.642-17.067-17.067v-170.665c0-9.425 7.642-17.067 17.067-17.067h68.266c9.425 0 17.067 7.642 17.067 17.067v170.665c0 9.425-7.642 17.067-17.067 17.067zM529.067 260.272h-34.133v136.532h34.133v-136.532zM716.798 533.337h-68.266c-9.425 0-17.067-7.642-17.067-17.067v-273.064c0-9.425 7.642-17.067 17.067-17.067h68.266c9.425 0 17.067 7.642 17.067 17.067v273.064c0 9.425-7.642 17.067-17.067 17.067zM699.732 260.272h-34.133v238.931h34.133v-238.931zM887.464 721.069h-68.266c-9.425 0-17.067-7.642-17.067-17.067v-460.796c0-9.425 7.642-17.067 17.067-17.067h68.266c9.425 0 17.067 7.642 17.067 17.067v460.796c0 9.425-7.642 17.067-17.067 17.067zM870.397 260.272h-34.133v426.663h34.133v-426.663z" />
<glyph unicode="&#xe935;" glyph-name="target" d="M750.070 509.752c-4.904 12.408-18.938 18.484-31.35 13.584-12.408-4.906-18.488-18.942-13.584-31.35 12.278-31.050 18.5-63.866 18.5-97.54 0-146.28-119.006-265.29-265.29-265.29-146.294 0-265.316 119.010-265.316 265.29s119.022 265.29 265.316 265.29c33.792 0 66.664-6.262 97.704-18.612 12.394-4.938 26.444 1.12 31.378 13.514 4.934 12.398-1.118 26.446-13.514 31.378-36.748 14.624-75.632 22.038-115.566 22.038-172.936 0-313.634-140.682-313.634-313.606s140.692-313.608 313.632-313.608c172.922 0 313.606 140.682 313.606 313.606 0 39.782-7.364 78.574-21.882 115.306zM899.012 520.786c-3.67 12.828-17.036 20.242-29.872 16.58-12.828-3.672-20.25-17.046-16.58-29.872 10.472-36.604 15.782-74.64 15.782-113.044 0-226.088-183.924-410.028-409.998-410.028-226.088 0-410.026 183.938-410.026 410.028s183.936 410.024 410.026 410.024c38.492 0 76.592-5.334 113.236-15.856 12.826-3.68 26.206 3.728 29.886 16.554 3.682 12.826-3.728 26.206-16.554 29.886-40.978 11.768-83.564 17.736-126.568 17.736-252.732-0.002-458.344-205.614-458.344-458.346s205.612-458.346 458.344-458.346c252.716 0 458.316 205.612 458.316 458.346 0 42.904-5.938 85.41-17.648 126.338zM626.556 409.198c-1.184 13.29-12.926 23.050-26.21 21.916-13.29-1.186-23.104-12.922-21.916-26.212 0.306-3.44 0.462-6.958 0.462-10.456 0-66.474-54.080-120.55-120.55-120.55-66.488 0-120.58 54.080-120.58 120.55 0.004 66.49 54.094 120.58 120.582 120.58 3.714 0 7.35-0.162 10.812-0.48 13.298-1.22 25.050 8.552 26.276 21.84 1.224 13.286-8.554 25.048-21.84 26.276-4.928 0.454-10.058 0.684-15.246 0.684-93.13 0-168.898-75.764-168.898-168.896 0-93.116 75.768-168.868 168.898-168.868 93.114 0 168.868 75.752 168.868 168.868-0.002 4.922-0.222 9.888-0.658 14.748zM1020.298 797.472c-7.506 18.124-25.034 29.836-44.652 29.836h-84.238v84.236c0 19.62-11.712 37.146-29.836 44.652-18.116 7.504-38.782 3.39-52.65-10.478l-140.752-140.754c-13.684-13.682-21.218-31.878-21.218-51.236v-136.71l-196.34-196.34c-9.434-9.434-9.434-24.732 0-34.168 4.716-4.716 10.9-7.076 17.082-7.076s12.366 2.36 17.082 7.076l196.342 196.342h136.71c19.358 0 37.556 7.536 51.236 21.216l140.754 140.758c13.872 13.87 17.984 34.532 10.48 52.646zM695.27 753.73c0.002 6.45 2.512 12.514 7.068 17.068l140.752 140.732v-98.376l-147.822-147.822v88.398zM834.9 638.236c-4.488-4.488-10.712-7.066-17.070-7.066h-88.392l147.818 147.818 98.384-0.012-140.74-140.74z" />
<glyph unicode="&#xe936;" glyph-name="settings" d="M971.585 555.492l-71.874 12.193c-7.487 24.172-17.113 47.488-28.878 69.735l42.354 59.253c17.969 25.242 15.188 59.681-6.845 81.5l-63.746 63.746c-11.979 11.979-27.808 18.61-44.707 18.61-13.263 0-25.883-4.064-36.579-11.765l-59.467-42.354c-23.102 12.193-47.274 22.247-72.302 29.734l-11.979 71.019c-5.134 30.589-31.445 52.836-62.462 52.836h-90.057c-31.017 0-57.328-22.247-62.462-52.836l-12.407-72.73c-23.958-7.487-47.274-17.327-69.521-29.306l-58.826 42.354c-10.696 7.701-23.53 11.765-36.793 11.765-16.899 0-32.942-6.631-44.707-18.61l-63.959-63.746c-21.819-21.819-24.814-56.259-6.845-81.5l42.782-60.109c-11.765-22.461-21.177-45.777-28.45-69.949l-71.019-11.979c-30.589-5.134-52.836-31.445-52.836-62.462v-90.057c0-31.017 22.247-57.328 52.836-62.462l72.73-12.407c7.487-23.958 17.327-47.274 29.306-69.521l-42.141-58.612c-17.969-25.242-15.188-59.681 6.845-81.5l63.746-63.746c11.979-11.979 27.808-18.61 44.707-18.61 13.263 0 25.883 4.064 36.579 11.765l60.109 42.782c21.605-11.337 44.28-20.535 67.596-27.808l11.979-71.874c5.134-30.589 31.445-52.836 62.462-52.836h90.271c31.017 0 57.328 22.247 62.462 52.836l12.193 71.874c24.172 7.487 47.488 17.113 69.735 28.878l59.253-42.354c10.696-7.701 23.53-11.765 36.793-11.765v0c16.899 0 32.728 6.631 44.707 18.61l63.746 63.746c21.819 21.819 24.814 56.259 6.845 81.5l-42.354 59.467c11.765 22.461 21.605 45.777 28.878 69.735l71.874 11.979c30.589 5.134 52.836 31.445 52.836 62.462v90.057c0.428 31.017-21.819 57.328-52.408 62.462zM966.665 402.973c0-2.781-1.925-5.134-4.706-5.562l-89.843-14.974c-11.337-1.925-20.322-10.268-23.102-21.177-8.129-31.445-20.535-61.606-37.221-89.629-5.776-9.84-5.348-22.033 1.283-31.445l52.836-74.441c1.497-2.139 1.283-5.348-0.642-7.273l-63.746-63.746c-1.497-1.497-2.995-1.711-4.064-1.711-1.283 0-2.353 0.428-3.209 1.070l-74.227 52.836c-9.198 6.631-21.605 7.059-31.445 1.283-28.022-16.685-58.184-29.092-89.629-37.221-11.123-2.781-19.466-11.979-21.177-23.102l-15.188-89.843c-0.428-2.781-2.781-4.706-5.562-4.706h-90.057c-2.781 0-5.134 1.925-5.562 4.706l-14.974 89.843c-1.925 11.337-10.268 20.322-21.177 23.102-30.589 7.915-60.109 20.108-87.704 35.937-4.492 2.567-9.626 3.85-14.546 3.85-5.776 0-11.765-1.711-16.685-5.348l-74.869-53.264c-1.070-0.642-2.139-1.070-3.209-1.070-0.856 0-2.567 0.214-4.064 1.711l-63.746 63.746c-1.925 1.925-2.139 4.92-0.642 7.273l52.622 73.799c6.631 9.412 7.059 21.819 1.283 31.659-16.685 27.808-29.52 57.97-37.648 89.415-2.995 10.909-11.979 19.252-23.102 21.177l-90.484 15.402c-2.781 0.428-4.706 2.781-4.706 5.562v90.057c0 2.781 1.925 5.134 4.706 5.562l89.201 14.974c11.337 1.925 20.535 10.268 23.316 21.391 7.915 31.445 20.108 61.82 36.579 89.843 5.776 9.84 5.134 22.033-1.497 31.231l-53.264 74.869c-1.497 2.139-1.283 5.348 0.642 7.273l63.746 63.746c1.497 1.497 2.995 1.711 4.064 1.711 1.283 0 2.353-0.428 3.209-1.070l73.799-52.622c9.412-6.631 21.819-7.059 31.659-1.283 27.808 16.685 57.97 29.52 89.415 37.648 10.909 2.995 19.252 11.979 21.177 23.102l15.402 90.484c0.428 2.781 2.781 4.706 5.562 4.706h90.057c2.781 0 5.134-1.925 5.562-4.706l14.974-89.201c1.925-11.337 10.268-20.535 21.391-23.316 32.301-8.129 63.104-20.749 91.768-37.648 9.84-5.776 22.033-5.348 31.445 1.283l73.799 53.050c1.070 0.642 2.139 1.070 3.209 1.070 0.856 0 2.567-0.214 4.064-1.711l63.746-63.746c1.925-1.925 2.139-4.92 0.642-7.273l-52.836-74.227c-6.631-9.198-7.059-21.605-1.283-31.445 16.685-28.022 29.092-58.184 37.221-89.629 2.781-11.123 11.979-19.466 23.102-21.177l89.843-15.188c2.781-0.428 4.706-2.781 4.706-5.562v-90.057h-0.214zM512.104 669.078c-121.929 0-220.97-99.041-220.97-220.97s99.041-220.97 220.97-220.97 220.97 99.041 220.97 220.97-99.041 220.97-220.97 220.97zM512.104 284.894c-90.057 0-163.214 73.158-163.214 163.214s73.158 163.214 163.214 163.214 163.214-73.158 163.214-163.214-73.158-163.214-163.214-163.214z" />
<glyph unicode="&#xe937;" glyph-name="avatar" d="M508.289 408.24c1.060 0 2.121 0 3.393 0 0.424 0 0.848 0 1.272 0 0.636 0 1.484 0 2.121 0 62.131 1.060 112.388 22.902 149.497 64.676 81.64 92.031 68.069 249.797 66.584 264.853-5.301 113.024-58.738 167.097-102.845 192.331-32.868 18.873-71.25 29.051-114.084 29.899h-1.484c-0.212 0-0.636 0-0.848 0h-1.272c-23.538 0-69.765-3.817-114.084-29.051-44.531-25.234-98.816-79.308-104.118-193.18-1.484-15.056-15.056-172.823 66.584-264.853 36.897-41.774 87.153-63.616 149.285-64.676zM349.038 732.468c0 0.636 0.212 1.272 0.212 1.696 6.998 152.041 114.932 168.369 161.16 168.369h0.848c0.424 0 1.060 0 1.696 0 57.254-1.272 154.586-24.598 161.16-168.369 0-0.636 0-1.272 0.212-1.696 0.212-1.484 15.056-145.68-52.377-221.595-26.719-30.111-62.343-44.955-109.207-45.379-0.424 0-0.636 0-1.060 0v0c-0.424 0-0.636 0-1.060 0-46.651 0.424-82.488 15.268-108.995 45.379-67.221 75.491-52.801 220.322-52.589 221.595zM947.449 146.568c0 0.212 0 0.424 0 0.636 0 1.696-0.212 3.393-0.212 5.301-1.272 41.986-4.029 140.166-96.060 171.55-0.636 0.212-1.484 0.424-2.121 0.636-95.636 24.386-175.155 79.52-176.003 80.156-12.935 9.118-30.748 5.937-39.866-6.998s-5.937-30.748 6.998-39.866c3.605-2.545 88.002-61.283 193.604-88.426 49.408-17.6 54.922-70.401 56.406-118.749 0-1.908 0-3.605 0.212-5.301 0.212-19.085-1.060-48.56-4.453-65.524-34.352-19.509-169.006-86.941-373.848-86.941-203.994 0-339.496 67.645-374.060 87.153-3.393 16.964-4.877 46.439-4.453 65.524 0 1.696 0.212 3.393 0.212 5.301 1.484 48.348 6.998 101.149 56.406 118.749 105.602 27.143 189.999 86.093 193.604 88.426 12.935 9.118 16.116 26.931 6.998 39.866s-26.931 16.116-39.866 6.998c-0.848-0.636-79.944-55.77-176.003-80.156-0.848-0.212-1.484-0.424-2.121-0.636-92.031-31.596-94.787-129.776-96.060-171.55 0-1.908 0-3.605-0.212-5.301 0-0.212 0-0.424 0-0.636-0.212-11.027-0.424-67.645 10.815-96.060 2.121-5.513 5.937-10.179 11.027-13.359 6.362-4.241 158.827-101.361 413.926-101.361s407.564 97.332 413.926 101.361c4.877 3.181 8.906 7.846 11.027 13.359 10.603 28.203 10.391 84.821 10.179 95.848z" />
<glyph unicode="&#xe938;" glyph-name="share" d="M811.375 302.14c-58.897 0-111.415-28.066-145.010-71.442l-281.302 157.13c6.591 18.924 10.206 39.336 10.206 60.385 0 21.262-3.615 41.462-10.419 60.598l281.090 156.917c33.382-43.588 86.113-71.867 145.223-71.867 100.784 0 183.070 82.073 183.070 183.070s-82.073 183.070-183.070 183.070-183.070-82.073-183.070-183.070c0-21.262 3.615-41.674 10.419-60.598l-280.877-156.917c-33.382 43.801-86.113 71.867-145.223 71.867-100.784 0-183.070-82.073-183.070-183.070s82.286-183.070 183.282-183.070c59.11 0 111.841 28.279 145.435 72.080l281.090-157.13c-6.804-19.136-10.631-39.761-10.631-61.023 0-100.784 82.073-183.070 183.070-183.070s183.070 82.073 183.070 183.070-82.286 183.070-183.282 183.070zM811.375 902.379c69.316 0 125.661-56.346 125.661-125.661s-56.346-125.661-125.661-125.661-125.661 56.346-125.661 125.661 56.558 125.661 125.661 125.661zM212.625 322.551c-69.316 0-125.661 56.346-125.661 125.661s56.346 125.661 125.661 125.661 125.661-56.346 125.661-125.661-56.558-125.661-125.661-125.661zM811.375-6.379c-69.316 0-125.661 56.346-125.661 125.661s56.346 125.661 125.661 125.661 125.661-56.346 125.661-125.661c0-69.316-56.346-125.661-125.661-125.661z" />
<glyph unicode="&#xe939;" glyph-name="heart" d="M941.29 814.55c-53.62 53.62-124.608 82.927-200.371 82.927s-146.968-29.524-200.588-83.144l-28.004-28.004-28.438 28.438c-53.62 53.62-125.042 83.361-200.805 83.361-75.546 0-146.751-29.524-200.154-82.927-53.62-53.62-83.144-124.825-82.927-200.588 0-75.763 29.741-146.751 83.361-200.371l407.689-407.689c5.644-5.644 13.242-8.683 20.623-8.683s14.979 2.822 20.623 8.466l408.557 407.038c53.62 53.62 83.144 124.825 83.144 200.588 0.217 75.763-29.090 146.968-82.71 200.588zM899.609 454.837l-387.934-386.414-387.066 387.066c-42.549 42.549-65.994 98.992-65.994 159.125s23.228 116.576 65.777 158.907c42.332 42.332 98.774 65.777 158.69 65.777 60.133 0 116.793-23.445 159.342-65.994l49.062-49.062c11.506-11.506 29.958-11.506 41.464 0l48.627 48.627c42.549 42.549 99.209 65.994 159.125 65.994s116.358-23.445 158.907-65.777c42.549-42.549 65.777-98.992 65.777-159.125 0.217-60.133-23.228-116.576-65.777-159.125z" />
<glyph unicode="&#xe93a;" glyph-name="like" d="M979.834 263.843c20.985 26.767 31.050 55.461 29.765 85.012-1.285 32.549-15.846 58.031-27.838 73.663 13.919 34.69 19.272 89.295-27.195 131.694-34.048 31.050-91.864 44.969-171.951 41.114-56.318-2.57-103.428-13.062-105.355-13.491h-0.214c-10.707-1.927-22.056-4.283-33.619-6.852-0.857 13.705 1.499 47.752 26.767 124.413 29.979 91.222 28.266 161.031-5.568 207.712-35.547 49.037-92.293 52.892-108.995 52.892-16.060 0-30.836-6.638-41.328-18.844-23.769-27.624-20.985-78.588-17.987-102.143-28.266-75.804-107.496-261.675-174.521-313.281-1.285-0.857-2.355-1.927-3.426-2.998-19.701-20.771-32.977-43.256-41.971-62.956-12.634 6.852-26.981 10.707-42.399 10.707h-130.623c-49.251 0-89.081-40.043-89.081-89.081v-347.972c0-49.251 40.043-89.081 89.081-89.081h130.623c19.058 0 36.831 5.996 51.393 16.274l50.322-5.996c7.709-1.071 144.756-18.416 285.444-15.632 25.482-1.927 49.465-2.998 71.736-2.998 38.33 0 71.736 2.998 99.573 8.994 65.526 13.919 110.28 41.757 132.979 82.657 17.345 31.264 17.345 62.314 14.561 82.014 42.613 38.545 50.108 81.158 48.609 111.137-0.857 17.345-4.711 32.12-8.78 43.041zM103.374 2.168c-17.345 0-31.264 14.133-31.264 31.264v348.186c0 17.345 14.133 31.264 31.264 31.264h130.623c17.345 0 31.264-14.133 31.264-31.264v-347.972c0-17.345-14.133-31.264-31.264-31.264h-130.623v-0.214zM925.015 288.897c-8.994-9.422-10.707-23.769-3.854-34.904 0-0.214 8.78-15.204 9.85-35.761 1.499-28.052-11.992-52.892-40.258-74.091-10.064-7.709-14.133-20.985-9.85-32.977 0-0.214 9.208-28.48-5.782-55.247-14.347-25.696-46.253-44.112-94.648-54.391-38.759-8.351-91.436-9.85-156.105-4.711-0.857 0-1.927 0-2.998 0-137.69-2.998-276.878 14.99-278.377 15.204h-0.214l-21.628 2.57c1.285 5.996 1.927 12.42 1.927 18.844v348.186c0 9.208-1.499 18.202-4.069 26.553 3.854 14.347 14.561 46.253 39.829 73.449 96.147 76.233 190.153 333.41 194.222 344.545 1.713 4.497 2.141 9.422 1.285 14.347-3.64 23.983-2.355 53.32 2.784 62.1 11.349-0.214 41.971-3.426 60.386-28.908 21.842-30.193 20.985-84.156-2.57-155.677-35.975-108.995-38.973-166.384-10.493-191.652 14.133-12.634 32.977-13.276 46.682-8.351 13.062 2.998 25.482 5.568 37.26 7.495 0.857 0.214 1.927 0.428 2.784 0.642 65.74 14.347 183.515 23.127 224.415-14.133 34.69-31.692 10.064-73.663 7.281-78.16-7.923-11.992-5.568-27.624 5.139-37.26 0.214-0.214 22.698-21.414 23.769-49.894 0.857-19.058-8.137-38.545-26.767-57.817z" />
<glyph unicode="&#xe93b;" glyph-name="star" d="M1022.596 567.377c-3.363 10.298-12.19 17.654-22.909 19.336l-319.46 45.397-143.757 288.985c-4.834 9.668-14.712 15.763-25.431 15.763v0c-10.719 0-20.597-6.095-25.431-15.973l-141.866-289.826-319.46-47.499c-10.719-1.681-19.546-9.037-22.909-19.336s-0.42-21.648 7.356-29.004l231.819-224.673-53.594-318.199c-1.892-10.719 2.522-21.437 11.349-27.743 4.834-3.573 10.719-5.464 16.604-5.464 4.624 0 9.037 1.051 13.241 3.363l285.202 151.113 286.043-149.432c4.203-2.102 8.617-3.153 13.031-3.153v0c15.553 0 28.373 12.82 28.373 28.373 0 2.312-0.21 4.414-0.841 6.515l-55.275 316.308 230.348 225.934c8.197 7.566 10.929 18.915 7.566 29.214zM734.662 342.284c-6.725-6.515-9.668-15.973-7.987-25.221l48.129-275.955-248.422 129.676c-8.197 4.414-18.075 4.203-26.482 0l-247.582-131.147 46.448 276.375c1.471 9.248-1.471 18.495-8.197 25.010l-200.924 195.039 277.216 41.194c9.248 1.471 17.234 7.146 21.227 15.553l123.16 251.575 124.842-250.944c4.203-8.407 12.19-14.081 21.437-15.553l277.426-39.512-200.293-196.090z" />
<glyph unicode="&#xe93c;" glyph-name="headphones" d="M1024 443.397c0 136.767-53.26 265.425-149.918 362.082s-225.315 149.918-362.082 149.918-265.425-53.26-362.082-149.918-149.918-225.315-149.918-362.082v-242.411c0-136.986 111.562-248.548 248.548-248.548 16.438 0 29.589 13.151 29.589 29.589v437.699c0 16.438-13.151 29.589-29.589 29.589-75.836 0-143.781-33.973-189.37-87.671v81.753c0 249.644 203.178 452.822 452.822 452.822s452.822-203.178 452.822-452.822c0-1.973 0.219-3.945 0.658-5.918-0.438-1.973-0.658-3.945-0.658-5.918v-81.753c-45.589 53.699-113.534 87.671-189.37 87.671-16.438 0-29.589-13.151-29.589-29.589v-437.699c0-16.438 13.151-29.589 29.589-29.589 136.986 0 248.548 111.562 248.548 248.548v242.411c0 1.973-0.219 3.945-0.658 5.918 0.438 1.973 0.658 3.945 0.658 5.918zM218.74 387.945v-373.918c-90.301 14.247-159.781 92.712-159.781 186.959 0.219 94.247 69.479 172.712 159.781 186.959zM805.26 2.192v373.918c90.301-14.247 159.781-92.712 159.781-186.959-0.219-94.466-69.479-172.712-159.781-186.959z" />
<glyph unicode="&#xe93d;" glyph-name="garbage" d="M938.947 812.632h-213.053v34.737c0 62.105-50.526 112.632-112.632 112.632h-202.526c-62.105 0-112.632-50.526-112.632-112.632v-34.737h-213.053c-15.789 0-28.421-12.632-28.421-28.421s12.632-28.421 28.421-28.421h51.368v-667.789c0-83.789 68.211-152 152-152h447.158c83.789 0 152 68.211 152 152v667.789h51.368c15.789 0 28.421 12.632 28.421 28.421s-12.632 28.421-28.421 28.421zM354.947 847.368c0 30.737 25.053 55.789 55.789 55.789h202.526c30.737 0 55.789-25.053 55.789-55.789v-34.737h-314.105v34.737zM830.737 88c0-52.421-42.737-95.158-95.158-95.158h-447.158c-52.421 0-95.158 42.737-95.158 95.158v667.789h637.684v-667.789h-0.211zM512 94.737c15.789 0 28.421 12.632 28.421 28.421v502.316c0 15.789-12.632 28.421-28.421 28.421s-28.421-12.632-28.421-28.421v-502.105c0-15.789 12.632-28.632 28.421-28.632zM326.526 126.105c15.789 0 28.421 12.632 28.421 28.421v439.789c0 15.789-12.632 28.421-28.421 28.421s-28.421-12.632-28.421-28.421v-439.789c0-15.789 12.842-28.421 28.421-28.421zM697.474 126.105c15.789 0 28.421 12.632 28.421 28.421v439.789c0 15.789-12.632 28.421-28.421 28.421s-28.421-12.632-28.421-28.421v-439.789c0-15.789 12.632-28.421 28.421-28.421z" />
<glyph unicode="&#xe93e;" glyph-name="internet" d="M894.905 108.632c80.225 90.412 129.095 209.267 129.095 339.368 0 135.362-52.895 258.525-138.982 350.173 0 0 0 0.018 0 0.018-0.071 0.106-0.177 0.141-0.23 0.23-89.671 95.32-215.305 156.337-355.046 161.121l-0.018 0.018-9.975 0.265c-2.578 0.088-5.155 0.177-7.751 0.177s-5.173-0.088-7.751-0.177l-9.94-0.265-0.018-0.018c-139.741-4.785-265.375-65.801-355.046-161.121-0.071-0.088-0.177-0.124-0.23-0.23 0 0 0-0.018-0.018-0.035-86.104-91.63-138.999-214.793-138.999-350.155 0-130.101 48.87-248.956 129.095-339.368 0.106-0.159 0.106-0.335 0.23-0.494 0.318-0.441 0.777-0.653 1.112-1.059 90.147-100.776 219.489-165.694 363.838-170.637l0.018-0.018 9.94-0.265c2.595-0.071 5.173-0.159 7.768-0.159s5.173 0.088 7.751 0.177l9.94 0.265 0.018 0.018c144.508 4.961 273.991 70.003 364.138 170.99 0.23 0.3 0.6 0.388 0.812 0.706 0.141 0.141 0.141 0.318 0.247 0.477zM35.752 430.345h211.915c1.995-74.84 16.614-147.562 42.637-215.693-50.211-18.167-98.216-42.531-143.201-72.934-66.154 78.689-107.326 178.988-111.351 288.627zM156.743 765.387c43.926-28.566 90.695-51.447 139.476-68.537-29.873-72.51-46.398-150.687-48.552-231.194h-211.915c4.22 114.882 49.205 219.489 120.991 299.732zM988.248 465.655h-211.915c-2.154 80.508-18.679 158.685-48.552 231.194 48.781 17.090 95.55 39.971 139.476 68.537 71.786-80.243 116.771-184.85 120.991-299.732zM494.345 695.826c-51.041 1.448-101.146 9.057-149.557 22.652 35.787 73.41 86.316 139.67 149.557 194.842v-217.494zM494.345 660.515v-194.86h-211.368c2.172 76.765 18.273 151.217 47.069 220.248 53.071-15.378 108.173-23.887 164.299-25.388zM529.655 660.515c56.126 1.501 111.228 9.993 164.317 25.388 28.796-69.032 44.897-143.484 47.069-220.248h-211.385v194.86zM529.655 695.826v217.494c63.241-55.172 113.77-121.432 149.557-194.842-48.41-13.594-98.516-21.204-149.557-22.652zM713.428 729.212c-33.916 71.062-80.984 135.804-139.264 191.294 103.389-13.524 196.414-60.275 268.058-129.201-40.678-25.812-83.827-46.574-128.794-62.093zM310.572 729.212c-44.968 15.519-88.117 36.281-128.777 62.093 71.627 68.926 164.67 115.677 268.058 129.201-58.297-55.49-105.366-120.232-139.282-191.294zM282.977 430.345h211.368v-177.223c-58.386-1.554-115.588-10.664-170.567-27.207-24.841 64.53-38.806 133.473-40.801 204.429zM494.345 217.812v-235.132c-67.69 59.057-120.761 130.807-156.849 210.397 50.617 14.919 103.194 23.217 156.849 24.735zM529.655-17.32v235.132c53.654-1.501 106.231-9.816 156.849-24.717-36.087-79.607-89.159-151.358-156.849-210.414zM529.655 253.122v177.223h211.368c-1.995-70.956-15.96-139.9-40.819-204.447-54.961 16.561-112.163 25.671-170.549 27.224zM776.333 430.345h211.915c-4.025-109.639-45.18-209.938-111.351-288.627-44.985 30.402-92.99 54.766-143.201 72.934 26.041 68.131 40.642 140.853 42.637 215.693zM171.096 115.271c41.772 27.754 86.246 50.070 132.714 66.754 34.339-76.977 83.633-147.121 146.026-206.53-108.597 14.212-205.789 65.059-278.74 139.776zM574.164-24.505c62.393 59.392 111.687 129.536 146.026 206.53 46.468-16.684 90.924-39 132.714-66.754-72.951-74.717-170.143-125.564-278.74-139.776z" />
<glyph unicode="&#xe93f;" glyph-name="network" d="M912.291 960c-61.608 0-111.709-50.102-111.709-111.709 0-19.27 4.897-37.404 13.517-53.248l-182.998-182.998c-25.228 19.642-56.804 31.446-91.173 31.446s-65.946-11.804-91.192-31.427l-142.783 142.783c6.554 11.078 10.557 23.813 10.557 37.59 0 41.072-33.401 74.473-74.473 74.473s-74.473-33.401-74.473-74.473 33.401-74.473 74.473-74.473c13.777 0 26.512 4.003 37.59 10.557l142.783-142.783c-19.624-25.246-31.427-56.823-31.427-91.192s11.804-65.946 31.427-91.173l-235.781-235.799c-19.847 18.004-46.080 29.082-74.92 29.082-61.608 0-111.709-50.102-111.709-111.709s50.102-111.709 111.709-111.709 111.709 50.102 111.709 111.709c0 19.27-4.897 37.404-13.517 53.248l238.853 238.853c20.592-16.012 45.428-26.736 72.574-30.143v-189.161c-52.745-8.899-93.091-54.775-93.091-110.033 0-61.608 50.102-111.709 111.709-111.709s111.709 50.102 111.709 111.709c0 55.24-40.346 101.115-93.091 110.033v189.161c27.145 3.407 51.982 14.131 72.574 30.143l142.783-142.783c-6.572-11.096-10.575-23.831-10.575-37.609 0-41.072 33.401-74.473 74.473-74.473s74.473 33.401 74.473 74.473-33.401 74.473-74.473 74.473c-13.777 0-26.512-4.003-37.59-10.557l-142.783 142.783c19.624 25.246 31.427 56.823 31.427 91.192s-11.804 65.946-31.427 91.173l179.945 179.945c19.828-18.004 46.061-29.082 74.901-29.082 61.608 0 111.709 50.102 111.709 111.709s-50.102 111.709-111.709 111.709zM204.8 792.436c0 20.536 16.701 37.236 37.236 37.236s37.236-16.701 37.236-37.236-16.701-37.236-37.236-37.236-37.236 16.701-37.236 37.236zM111.709 10.473c-41.072 0-74.473 33.401-74.473 74.473s33.401 74.473 74.473 74.473 74.473-33.401 74.473-74.473-33.401-74.473-74.473-74.473zM614.4 47.709c0-41.072-33.401-74.473-74.473-74.473s-74.473 33.401-74.473 74.473 33.401 74.473 74.473 74.473 74.473-33.401 74.473-74.473zM539.927 382.836c-61.608 0-111.709 50.102-111.709 111.709s50.102 111.709 111.709 111.709 111.709-50.102 111.709-111.709-50.102-111.709-111.709-111.709zM875.055 196.655c0-20.536-16.701-37.236-37.236-37.236s-37.236 16.701-37.236 37.236 16.701 37.236 37.236 37.236 37.236-16.701 37.236-37.236zM912.291 773.818c-41.072 0-74.473 33.401-74.473 74.473s33.401 74.473 74.473 74.473 74.473-33.401 74.473-74.473-33.401-74.473-74.473-74.473z" />
<glyph unicode="&#xe940;" glyph-name="shopping-cart-2" d="M307.407 285.773h564.225c63.978 0 116.17 52.192 116.17 116.17v237.391c0 0.21 0 0.631 0 0.842 0 0.631 0 1.052 0 1.684 0 0.421 0 0.842-0.21 1.263 0 0.421-0.21 1.052-0.21 1.473s-0.21 0.842-0.21 1.263c-0.21 0.421-0.21 0.842-0.421 1.473-0.21 0.421-0.21 0.842-0.421 1.263s-0.21 0.842-0.421 1.263c-0.21 0.421-0.421 0.842-0.631 1.473-0.21 0.421-0.421 0.842-0.631 1.052-0.21 0.421-0.421 0.842-0.631 1.263s-0.421 0.631-0.631 1.052c-0.21 0.421-0.631 0.842-0.842 1.263s-0.421 0.631-0.842 1.052c-0.21 0.421-0.631 0.631-0.842 1.052s-0.631 0.631-0.842 1.052-0.631 0.631-0.842 0.842c-0.421 0.421-0.631 0.631-1.052 1.052-0.421 0.21-0.631 0.631-1.052 0.842s-0.842 0.631-1.263 0.842c-0.421 0.21-0.631 0.421-1.052 0.631s-0.842 0.421-1.263 0.842c-0.421 0.21-0.842 0.421-1.263 0.631s-0.842 0.421-1.263 0.631-0.842 0.421-1.263 0.631-0.842 0.21-1.263 0.421c-0.421 0.21-1.052 0.421-1.473 0.421s-0.842 0.21-1.052 0.21-1.052 0.21-1.684 0.21c-0.21 0-0.421 0.21-0.842 0.21l-715.12 98.703v99.755c0 1.052 0 2.105-0.21 2.946 0 0.21 0 0.421-0.21 0.842 0 0.631-0.21 1.263-0.21 1.894-0.21 0.631-0.21 1.052-0.421 1.684 0 0.421-0.21 0.631-0.21 1.052-0.21 0.631-0.421 1.263-0.631 1.894 0 0.21-0.21 0.631-0.21 0.842-0.21 0.631-0.421 1.052-0.842 1.684-0.21 0.21-0.21 0.631-0.421 0.842-0.21 0.421-0.421 0.842-0.842 1.263-0.21 0.421-0.421 0.631-0.631 1.052s-0.421 0.631-0.631 1.052-0.631 0.842-0.842 1.263c-0.21 0.21-0.421 0.421-0.631 0.631-0.421 0.421-0.842 0.842-1.263 1.263-0.21 0.21-0.421 0.421-0.631 0.631-0.421 0.421-0.842 0.842-1.473 1.263-0.21 0.21-0.631 0.421-0.842 0.631-0.421 0.421-0.842 0.631-1.263 1.052-0.631 0.421-1.263 0.842-1.684 1.052-0.21 0.21-0.421 0.21-0.631 0.421-0.842 0.421-1.894 0.842-2.736 1.263l-155.104 65.24c-14.521 6.103-31.147-0.631-37.25-15.153s0.631-31.147 15.153-37.25l137.636-58.085v-622.521c0-58.927 44.195-107.752 101.228-115.118-10.312-17.257-16.415-37.461-16.415-58.927 0-63.346 51.561-114.697 114.697-114.697s114.697 51.561 114.697 114.697c0 21.045-5.682 41.038-15.784 57.875h255.49c-10.102-17.047-15.784-36.829-15.784-57.875 0-63.346 51.561-114.697 114.697-114.697s114.697 51.561 114.697 114.697-51.561 114.697-114.697 114.697h-536.656c-32.831 0-59.348 26.728-59.348 59.348v77.026c17.257-10.102 37.671-15.994 59.348-15.994zM448.831 50.907c0-31.989-26.096-57.875-57.875-57.875s-57.875 26.096-57.875 57.875 26.096 57.875 57.875 57.875 57.875-25.886 57.875-57.875zM902.148 50.907c0-31.989-26.096-57.875-57.875-57.875s-57.875 26.096-57.875 57.875 26.096 57.875 57.875 57.875 57.875-25.886 57.875-57.875zM871.632 342.596h-564.225c-32.831 0-59.348 26.728-59.348 59.348v307.051l682.921-94.073v-212.768c0-33.041-26.728-59.558-59.348-59.558z" />
<glyph unicode="&#xe941;" glyph-name="connections" d="M694.336 230.645c-81.234 0-147.319-66.088-147.319-147.319s66.085-147.323 147.319-147.323 147.323 66.088 147.323 147.323-66.088 147.319-147.323 147.319zM694.336-22.324c-58.25 0-105.643 47.393-105.643 105.646s47.393 105.643 105.643 105.643c58.253 0 105.646-47.393 105.646-105.643s-47.39-105.646-105.646-105.646zM449.991 579.47c5.331 0 10.666 2.035 14.733 6.102l124.269 124.265c26.77-27.416 64.091-44.483 105.348-44.483 81.234 0 147.323 66.088 147.323 147.319s-66.092 147.326-147.326 147.326-147.319-66.088-147.319-147.323c0-24.832 6.199-48.234 17.098-68.78l-128.857-128.853c-8.141-8.137-8.141-21.331-0.003-29.469 4.070-4.070 9.402-6.106 14.736-6.106zM694.336 918.324c58.253 0 105.646-47.393 105.646-105.646s-47.393-105.643-105.646-105.643c-58.25 0-105.643 47.393-105.643 105.643s47.393 105.646 105.643 105.646zM548.42 213.523l-122.82 122.817c31.424 27.038 51.38 67.050 51.38 111.662 0 81.234-66.085 147.323-147.319 147.323s-147.323-66.088-147.323-147.323 66.092-147.323 147.323-147.323c21.321 0 41.579 4.588 59.889 12.774l129.402-129.398c4.067-4.067 9.402-6.102 14.733-6.102s10.666 2.035 14.733 6.102c8.141 8.137 8.141 21.331 0.003 29.469zM224.014 448.002c0 58.253 47.393 105.646 105.646 105.646 58.25 0 105.643-47.393 105.643-105.646s-47.39-105.646-105.643-105.646c-58.253 0-105.646 47.393-105.646 105.646z" />
<glyph unicode="&#xe942;" glyph-name="envelope" d="M1023.29 706.732c-0.042 28.898-23.564 52.378-52.454 52.378-0.024 0-0.048 0-0.068 0l-918.388-1.262c-14.010-0.018-27.176-5.492-37.070-15.412-9.892-9.922-15.328-23.104-15.31-37.11l0.71-516.057c0.018-14.010 5.492-27.176 15.412-37.070 9.902-9.876 23.052-15.31 37.038-15.31 0.024 0 0.050 0 0.070 0l918.386 1.262c28.916 0.040 52.414 23.598 52.38 52.522l-0.706 516.059zM913.22 706.58l-401.181-278.887-401.959 277.783 803.14 1.104zM681.691 375.059l237.942-184.53-815.942-1.12 239.392 185.65c11.444 8.878 13.528 25.35 4.652 36.798-8.878 11.444-25.35 13.528-36.798 4.652l-257.813-199.938-0.64 464.949 444.687-307.313c4.488-3.102 9.698-4.65 14.91-4.65 5.234 0 10.472 1.566 14.97 4.692l443.823 308.527 0.672-466.131-257.711 199.862c-11.438 8.874-27.918 6.792-36.794-4.652-8.878-11.444-6.796-27.92 4.652-36.796z" />
<glyph unicode="&#xe943;" glyph-name="email" d="M934 838h-844c-49.564 0-90-40.392-90-90v-600c0-49.44 40.256-90 90-90h844c49.44 0 90 40.256 90 90v600c0 49.44-40.256 90-90 90zM921.572 778l-407.664-407.666-411.19 407.666h818.854zM60 160.424v575.438l288.958-286.48-288.958-288.958zM102.426 118l289.14 289.14 101.314-100.444c11.728-11.628 30.654-11.59 42.334 0.092l98.786 98.786 287.574-287.574h-819.148zM964 160.426l-287.574 287.574 287.574 287.576v-575.15z" />
<glyph unicode="&#xe944;" glyph-name="message" d="M981.812 777.332h-939.624c-23.3 0-42.188-18.888-42.188-42.188v-574.288c0-23.3 18.888-42.188 42.188-42.188h939.624c23.3 0 42.188 18.888 42.188 42.188v574.288c0 23.3-18.888 42.188-42.188 42.188zM42.188 744.2h939.624c3.965-0.019 7.455-2.615 8.614-6.406l-478.426-298.851-478.426 298.851c1.16 3.791 4.65 6.386 8.614 6.406zM33.132 700.024l344.131-214.916-344.131-273.008v487.924zM990.868 161.077c0-5.003-4.056-9.056-9.056-9.056h-939.624c-5 0-9.056 4.056-9.056 9.056v8.835l373.95 295.538 96.083-60.079c5.398-3.404 12.273-3.404 17.67 0l96.083 60.079 373.95-295.538v-8.835zM990.868 212.1l-345.015 272.124 345.015 213.812v-485.936z" />
<glyph unicode="&#xe945;" glyph-name="message-1" d="M1023.218 564.798c-0.002 1.54-0.346 3.866-0.944 5.206-1.574 5.708-5.072 10.922-10.308 14.562l-146.584 101.896v109.232c0 14.48-11.744 26.224-26.224 26.224h-168.638l-143.486 99.756c-8.968 6.242-20.874 6.268-29.87 0.052l-144.412-99.808h-167.9c-14.484 0-26.224-11.744-26.224-26.224v-107.946l-147.296-101.802c-7.246-5.008-11.166-13.014-11.29-21.2-0.008-0.154-0.042-0.3-0.042-0.46l0.782-568.47c0.010-6.954 2.782-13.62 7.704-18.532 4.916-4.902 11.576-7.654 18.52-7.654 0.014 0 0.024 0 0.036 0l970.77 1.334c14.48 0.020 26.208 11.778 26.188 26.26l-0.782 567.574zM865.38 622.584l83.796-58.236-83.796-58.256v116.492zM512.030 868.232l66.62-46.312h-133.624l67.004 46.312zM211.076 769.47h601.856v-299.842l-202.072-140.484-82.388 63.908c-0.128 0.1-0.238 0.162-0.362 0.252-9.208 6.908-22.232 7.162-31.788-0.252l-82.986-64.37-202.26 139.786v301.002zM158.628 623.994v-119.28l-86.292 59.638 86.292 59.642zM52.516 514.266l317.338-219.31-316.698-245.648-0.64 464.958zM103.75 22.182l408.648 316.968 407.182-315.846-815.83-1.122zM654.288 295.458l316.552 220.072 0.64-466.118-317.192 246.046zM689.54 664.574h-355.072c-14.48 0-26.224-11.744-26.224-26.224s11.744-26.224 26.224-26.224h355.072c14.484 0 26.224 11.744 26.224 26.224s-11.74 26.224-26.224 26.224zM689.54 528.21h-355.072c-14.48 0-26.224-11.744-26.224-26.224s11.744-26.224 26.224-26.224h355.072c14.484 0 26.224 11.744 26.224 26.224s-11.74 26.224-26.224 26.224z" />
<glyph unicode="&#xe946;" glyph-name="e-mail-envelope1" d="M0 787.388v-678.776h1024v678.776h-1024zM512.005 368.216l-420.003 368.824h839.996l-419.993-368.824zM344.695 448.119l-294.346-258.481v516.965l294.346-258.483zM382.846 414.611l129.147-113.414 129.147 113.414 291.122-255.65h-840.524l291.108 255.65zM679.293 448.107l294.356 258.496v-516.965l-294.356 258.469z" />
<glyph unicode="&#xe947;" glyph-name="internet-1" d="M512 960c-282.771 0-512-229.229-512-512s229.229-512 512-512 512 229.229 512 512c-0.38 282.612-229.388 511.62-512 512zM385.438 908.225c-50.688-47.771-89.125-107.048-112.065-172.814-38.104 9.253-75.419 21.487-111.604 36.588 60.396 65.378 137.869 112.562 223.669 136.227zM138.298 744.845c39.945-18.075 81.365-32.702 123.8-43.721-24.024-76.366-36.815-155.818-37.969-235.865v0.69h-188.692c3.547 101.58 39.599 199.341 102.86 278.896zM138.298 152.996c-63.261 79.556-99.314 177.316-102.86 278.896l188.692-0.46c1.087-80.278 13.879-159.968 37.969-236.556-42.381-10.424-83.795-24.435-123.8-41.88zM161.769 124.462v1.381c36.185 15.104 73.501 27.337 111.604 36.588 22.675-66.428 61.129-126.36 112.065-174.655-85.852 23.794-163.331 71.142-223.669 136.687zM494.742-27.872c-77.318 9.895-144.971 84.911-188.002 196.286 61.915 12.463 124.85 19.165 188.002 20.020v-216.306zM494.742 224.331c-67.037-0.854-133.842-8.097-199.507-21.631-23.031 73.869-35.279 150.675-36.358 228.041v0.69h235.865v-207.101zM494.742 465.949h-235.865c0.88 78.063 13.128 155.582 36.358 230.112 65.619-13.997 132.424-21.702 199.507-23.011v-207.101zM494.742 707.567c-63.143 0.782-126.079 7.407-188.002 19.79 43.031 111.835 110.684 186.621 188.002 196.516v-216.306zM885.702 743.464c63.261-79.556 99.314-177.316 102.86-278.896h-188.692c-1.041 80.433-13.836 160.282-37.969 237.016 42.381 10.424 83.795 24.435 123.8 41.88zM862.001 771.538c-36.185-15.101-73.501-27.334-111.604-36.588-22.807 65.91-61.17 125.348-111.835 173.275 85.769-23.831 163.164-71.177 223.439-136.687zM529.258 923.872c77.318-9.895 144.971-84.911 188.002-196.286-61.915-12.461-124.85-19.163-188.002-20.020v216.306zM529.258 673.050c67.037 0.851 133.845 8.094 199.507 21.631 23.23-74.531 35.478-152.050 36.358-230.112h-235.865v208.482zM529.258 430.051h235.865c-0.88-78.063-13.128-155.582-36.358-230.112-65.619 13.999-132.424 21.702-199.507 23.011v207.101zM529.258-27.872v216.306c63.143-0.78 126.079-7.404 188.002-19.79-43.031-111.835-110.684-186.621-188.002-196.516zM638.562-12.225c50.72 47.837 89.16 107.195 112.065 173.044 38.104-9.251 75.419-21.484 111.604-36.588-60.367-65.461-137.843-112.729-223.669-136.457zM885.702 151.155c-39.945 18.075-81.362 32.705-123.8 43.721 24.024 76.366 36.815 155.818 37.969 235.865v-0.69h188.692c-3.547-101.58-39.599-199.341-102.86-278.896z" />
<glyph unicode="&#xe948;" glyph-name="full-screen" d="M256 896v64h-224c-17.674 0-32-14.326-32-32v-224h64v146.88l297.28-297.28 45.12 45.12-297.28 297.28h146.88zM992 960h-224v-64h146.88l-297.28-297.28 45.12-45.12 297.28 297.28v-146.88h64v224c0 17.674-14.326 32-32 32zM960 45.12l-297.28 297.28-45.12-45.12 297.28-297.28h-146.88v-64h224c17.674 0 32 14.326 32 32v224h-64v-146.88zM361.28 342.72l-297.28-297.6v146.88h-64v-224c0-17.674 14.326-32 32-32h224v64h-146.88l297.28 297.28-45.12 45.44z" />
</font>
</defs>
</svg>
